Films

Joker

18-12-2019
Joker


Origine du film :U.S.A.
Réalisateur(s) :Todd Phillips
Acteur(s) :Joaquin Phoenix, Robert De Niro, Zazie Beetz
Genre :Drame,
Année de sortie :2019-10-09
Titre Original :Joker
Note spectateur : - 4.5/5
Qualité/Format/Langue: HDLight 1080p MULTI

Le film, qui relate une histoire originale inédite sur grand écran, se focalise sur la figure emblématique de l'ennemi juré de Batman. Il brosse le portrait d'Arthur Fleck, un homme sans concession méprisé par la société. NFO Show/hide text General Unique ID : 316083087026142266056467775883521826389 (0xEDCB63628100507744DCCF2E99F01E55) Complete name : Joker.2019.MULTi.1080p.WEB-DL.H264-NEOJoker.2019.MULTi.1080p.WEBRip.Light.x264-OXYG3N.mkv Format : Matroska Format version : Version 4 File size : 1.51 GiB Duration : 2 h 1 min Overall bit rate : 1 776 kb/s Movie name : Joker (2019) MULTi VFQ 1080p WEBRip Light Encoded date : UTC 2019-12-17 19:22:56 Writing application : mkvmerge v36.0.0 ('Is That Jazz?') 64-bit Writing library : libebml v1.3.9 + libmatroska v1.5.2 Video ID : 1 Format : AVC Format/Info : Advanced Video Codec Format profile : [email protected] Format settings : CABAC / 4 Ref Frames Format settings, CABAC : Yes Format settings, RefFrames : 4 frames Codec ID : V_MPEG4/ISO/AVC Duration : 2 h 1 min Bit rate : 1 327 kb/s Width : 1 920 pixels Height : 1 036 pixels Display aspect ratio : 1.85:1 Frame rate mode : Variable Frame rate : 23.976 FPS Color space : YUV Chroma subsampling : 4:2:0 Bit depth : 8 bits Scan type : Progressive Bits/(Pixel*Frame) : 0.028 Stream size : 1.13 GiB (75%) Writing library : x264 core 148 r2748 97eaef2 Encoding settings : cabac=1 / ref=2 / deblock=1:0:0 / analyse=0x3:0x113 / me=hex / subme=4 / psy=1 / psy_rd=1.00:0.00 / mixed_ref=0 / me_range=16 / chroma_me=1 / trellis=1 / 8x8dct=1 / cqm=0 / deadzone=21,11 / fast_pskip=1 / chroma_qp_offset=0 / threads=6 / lookahead_threads=1 / sliced_threads=0 / nr=0 / decimate=1 / interlaced=0 / bluray_compat=0 / constrained_intra=0 / bframes=3 / b_pyramid=2 / b_adapt=1 / b_bias=0 / direct=1 / weightb=1 / open_gop=0 / weightp=1 / keyint=250 / keyint_min=23 / scenecut=40 / intra_refresh=0 / rc_lookahead=20 / rc=2pass / mbtree=1 / bitrate=1327 / ratetol=1.0 / qcomp=0.60 / qpmin=0 / qpmax=69 / qpstep=4 / cplxblur=20.0 / qblur=0.5 / ip_ratio=1.40 / aq=1:1.00 Language : English Default : Yes Forced : No Audio #1 ID : 2 Format : AAC LC Format/Info : Advanced Audio Codec Low Complexity Codec ID : A_AAC-2 Duration : 2 h 1 min Bit rate : 128 kb/s Channel(s) : 2 channels Channel layout : L R Sampling rate : 48.0 kHz Frame rate : 46.875 FPS (1024 SPF) Compression mode : Lossy Delay relative to video : 1 s 2 ms Stream size : 111 MiB (7%) Title : French VFQ 2.0 Language : French Default : Yes Forced : No Audio #2 ID : 3 Format : AC-3 Format/Info : Audio Coding 3 Commercial name : Dolby Digital Codec ID : A_AC3 Duration : 2 h 1 min Bit rate mode : Constant Bit rate : 320 kb/s Channel(s) : 6 channels Channel layout : L R C LFE Ls Rs Sampling rate : 48.0 kHz Frame rate : 31.250 FPS (1536 SPF) Bit depth : 16 bits Compression mode : Lossy Stream size : 279 MiB (18%) Title : English 5.1 Language : English Service kind : Complete Main Default : No Forced : No Text #1 ID : 4 Format : UTF-8 Codec ID : S_TEXT/UTF8 Codec ID/Info : UTF-8 Plain Text Duration : 1 h 31 min Bit rate : 1 b/s Count of elements : 38 Stream size : 1.23 KiB (0%) Title : Forced Language : French Default : Yes Forced : Yes Text #2 ID : 5 Format : UTF-8 Codec ID : S_TEXT/UTF8 Codec ID/Info : UTF-8 Plain Text Duration : 2 h 1 min Bit rate : 37 b/s Count of elements : 1115 Stream size : 33.3 KiB (0%) Title : Full FR Language : French Default : No Forced : No


Autres versions disponibles