Films

Joker

17-12-2019
Joker


Origine du film :U.S.A.
Réalisateur(s) :Todd Phillips
Acteur(s) :Joaquin Phoenix, Robert De Niro, Zazie Beetz
Genre :Drame,
Année de sortie :2019-10-09
Titre Original :Joker
Note spectateur : - 4.5/5
Qualité/Format/Langue: ULTRA HD (X265) MULTI

Le film, qui relate une histoire originale inédite sur grand écran, se focalise sur la figure emblématique de l'ennemi juré de Batman. Il brosse le portrait d'Arthur Fleck, un homme sans concession méprisé par la société. NFO Show/hide text Source video : iTunes (Untouched) - BLUTONiUM Source audio anglais & sous-titres anglais : iTunes - BLUTONiUM Source audio francais & sous-titres fr : NEO General Unique ID : 142468196787426318770165157535040013086 (0x6B2E606AED4C97854BC4353B5792031E) Complete name : F:Torrent ADLJoker.2019.MULTi.2160p.WEB-DL.AAC.HEVC-Candial.mkv Format : Matroska Format version : Version 4 File size : 19.0 GiB Duration : 2 h 1 min Overall bit rate : 22.3 Mb/s Movie name : Joker.2019.MULTi.2160p.WEB-DL.DDP5.1.HEVC.AAC-Candial Encoded date : UTC 2019-12-17 13:58:27 Writing application : mkvmerge v32.0.0 ('Astral Progressions') 64-bit Writing library : libebml v1.3.7 + libmatroska v1.5.0 Video ID : 1 Format : HEVC Format/Info : High Efficiency Video Coding Format profile : Main [email protected]@High Codec ID : V_MPEGH/ISO/HEVC Duration : 2 h 1 min Bit rate : 21.8 Mb/s Width : 3 840 pixels Height : 2 160 pixels Display aspect ratio : 16:9 Frame rate mode : Constant Frame rate : 23.976 (24000/1001) FPS Color space : YUV Chroma subsampling : 4:2:0 Bit depth : 10 bits Bits/(Pixel*Frame) : 0.110 Stream size : 18.5 GiB (98%) Writing library : x265 2.8+74-fd517ae68f93:[Windows][GCC 8.2.1][64 bit] 10bit Encoding settings : cpuid=1111039 / frame-threads=3 / numa-pools=8 / wpp / no-pmode / no-pme / no-psnr / no-ssim / log-level=2 / input-csp=1 / input-res=3840x2160 / interlace=0 / total-frames=0 / level-idc=0 / high-tier=1 / uhd-bd=0 / ref=4 / no-allow-non-conformance / no-repeat-headers / annexb / no-aud / no-hrd / info / hash=0 / no-temporal-layers / no-open-gop / min-keyint=96 / keyint=96 / gop-lookahead=0 / bframes=4 / b-adapt=2 / b-pyramid / bframe-bias=0 / rc-lookahead=24 / lookahead-slices=4 / scenecut=0 / radl=0 / no-intra-refresh / ctu=64 / min-cu-size=8 / rect / no-amp / max-tu-size=32 / tu-inter-depth=1 / tu-intra-depth=1 / limit-tu=0 / rdoq-level=2 / dynamic-rd=0.00 / no-ssim-rd / signhide / no-tskip / nr-intra=0 / nr-inter=0 / no-constrained-intra / strong-intra-smoothing / max-merge=3 / limit-refs=3 / limit-modes / me=3 / subme=3 / merange=57 / temporal-mvp / weightp / no-weightb / no-analyze-src-pics / deblock=0:0 / sao / no-sao-non-deblock / rd=4 / no-early-skip / rskip / no-fast-intra / no-tskip-fast / no-cu-lossless / no-b-intra / no-splitrd-skip / rdpenalty=0 / psy-rd=2.00 / psy-rdoq=1.00 / no-rd-refine / no-lossless / cbqpoffs=0 / crqpoffs=0 / rc=abr / bitrate=22000 / qcomp=0.60 / qpstep=4 / stats-write=0 / stats-read=0 / vbv-maxrate=33000 / vbv-bufsize=110000 / vbv-init=0.9 / ipratio=1.40 / pbratio=1.30 / aq-mode=1 / aq-strength=1.00 / cutree / zone-count=0 / no-strict-cbr / qg-size=32 / no-rc-grain / qpmax=69 / qpmin=0 / no-const-vbv / sar=1 / overscan=0 / videoformat=5 / range=0 / colorprim=1 / transfer=1 / colormatrix=1 / chromaloc=0 / display-window=0 / max-cll=0,0 / min-luma=0 / max-luma=1023 / log2-max-poc-lsb=8 / vui-timing-info / vui-hrd-info / slices=1 / no-opt-qp-pps / no-opt-ref-list-length-pps / no-multi-pass-opt-rps / scenecut-bias=0.05 / no-opt-cu-delta-qp / no-aq-motion / no-hdr / no-hdr-opt / no-dhdr10-opt / no-idr-recovery-sei / analysis-reuse-level=5 / scale-factor=0 / refine-intra=0 / refine-inter=0 / refine-mv=0 / no-limit-sao / ctu-info=0 / no-lowpass-dct / refine-mv-type=0 / copy-pic=1 / max-ausize-factor=1.0 / no-dynamic-refine / no-single-sei Default : Yes Forced : No Color range : Limited Color primaries : BT.709 Transfer characteristics : BT.709 Matrix coefficients : BT.709 Audio #1 ID : 2 Format : AAC LC Format/Info : Advanced Audio Codec Low Complexity Codec ID : A_AAC-2 Duration : 2 h 1 min Bit rate : 128 kb/s Channel(s) : 2 channels Channel layout : L R Sampling rate : 48.0 kHz Frame rate : 46.875 FPS (1024 SPF) Compression mode : Lossy Delay relative to video : 2 ms Stream size : 111 MiB (1%) Title : Fran�ais / AAC 2.0 / 128kbps Language : French Default : No Forced : No Audio #2 ID : 3 Format : E-AC-3 Format/Info : Enhanced AC-3 Commercial name : Dolby Digital Plus Codec ID : A_EAC3 Duration : 2 h 1 min Bit rate mode : Constant Bit rate : 384 kb/s Channel(s) : 6 channels Channel layout : L R C LFE Ls Rs Sampling rate : 48.0 kHz Frame rate : 31.250 FPS (1536 SPF) Compression mode : Lossy Stream size : 335 MiB (2%) Title : Anglais / E-AC-3 5.1 / 640kbps Language : English Service kind : Complete Main Default : Yes Forced : No Text #1 ID : 4 Format : UTF-8 Codec ID : S_TEXT/UTF8 Codec ID/Info : UTF-8 Plain Text Duration : 1 h 31 min Bit rate : 1 b/s Count of elements : 38 Stream size : 1.23 KiB (0%) Title : Francais Forced Language : French Default : No Forced : Yes Text #2 ID : 5 Format : UTF-8 Codec ID : S_TEXT/UTF8 Codec ID/Info : UTF-8 Plain Text Duration : 2 h 1 min Bit rate : 37 b/s Count of elements : 1115 Stream size : 33.3 KiB (0%) Title : Francais Complets Language : French Default : Yes Forced : No Text #3 ID : 6 Format : UTF-8 Codec ID : S_TEXT/UTF8 Codec ID/Info : UTF-8 Plain Text Duration : 1 h 54 min Bit rate : 75 b/s Count of elements : 1636 Stream size : 63.6 KiB (0%) Title : Anglais Language : English Default : No Forced : No Menu 00:00:00.000 : en:Studio Logo 00:00:14.000 : en:Makeup 00:01:31.000 : en:Broken Sign 00:03:42.000 : en:Therapy 00:07:41.000 : en:Bus 00:09:14.000 : en:Meeting Murray 00:15:20.000 : en:Protection 00:19:12.000 : en:Enter Sophie 00:21:00.000 : en:Bath 00:23:33.000 : en:Following 00:24:52.000 : en:Comedy Scout 00:26:00.000 : en:Invite 00:27:58.000 : en:Hospital Gig 00:29:22.000 : en:Subway Scuffle 00:34:09.000 : en:Fleeing 00:36:13.000 : en:First Kiss 00:36:45.000 : en:Punching Out 00:38:13.000 : en:Wayne Interview 00:39:55.000 : en:Negative Thoughts 00:42:13.000 : en:Open Mic 00:45:14.000 : en:Date 00:46:20.000 : en:Letter to Wayne 00:50:22.000 : en:Clipping 00:51:11.000 : en:Wayne Manor 00:55:15.000 : en:Emergency 00:56:18.000 : en:Detectives 00:58:31.000 : en:Arthur on T.V. 01:01:00.000 : en:Protest Coverage 01:02:17.000 : en:Meeting Wayne 01:07:10.000 : en:Invitation 01:09:35.000 : en:Arkham 01:13:25.000 : en:Penny's File 01:15:40.000 : en:Sophie's Place 01:19:48.000 : en:Life's a Comedy 01:22:11.000 : en:Practice 01:24:27.000 : en:Randall and Gary visit Arthur 01:30:14.000 : en:Stairwell Waltz 01:34:50.000 : en:Dressing Room 01:37:01.000 : en:Arthur's Big Moment 01:46:34.000 : en:Riot 01:49:04.000 : en:Crime Alley 01:50:01.000 : en:Joker's Fans 01:52:32.000 : en:Thinking of a Joke 01:55:38.000 : en:End Credits


Autres versions disponibles