Films

Rambo: Last Blood

07-12-2019
Rambo: Last Blood


Origine du film :U.S.A.
Réalisateur(s) :Adrian Grunberg
Acteur(s) :Sylvester Stallone, Yvette Monreal, Adriana Barraza
Genre :Action,
Année de sortie :2019-09-25
Titre Original :Rambo: Last Blood
Note spectateur : - 3.9/5
Qualité/Format/Langue: HDLight 720p FRENCH

Cinquième épisode de la saga Rambo. Vétéran de la Guerre du Vietnam, John Rambo va devoir affronter un cartel mexicain. Show/hide text Rambo.Last.Blood.2019.FRENCH.720p.HDLight.AC3.x264-RDH.WwW.Zone-Telechargement.NET.mkv Format : Matroska Format version : Version 4 File size : 1.53 GiB Duration : 1 h 29 min Overall bit rate : 2 450 kb/s Encoded date : UTC 2019-12-07 09:56:07 Writing application : HandBrake 1.3.0 2019110900 Writing library : Lavf58.29.100 ErrorDetectionType : Per level 1 Video ID : 1 Format : AVC Format/Info : Advanced Video Codec Format profile : [email protected] Format settings : CABAC / 4 Ref Frames Format settings, CABAC : Yes Format settings, ReFrames : 4 frames Codec ID : V_MPEG4/ISO/AVC Duration : 1 h 29 min Bit rate : 2 000 kb/s Width : 1 280 pixels Height : 536 pixels Display aspect ratio : 2.40:1 Frame rate mode : Constant Frame rate : 23.976 (24000/1001) FPS Color space : YUV Chroma subsampling : 4:2:0 Bit depth : 8 bits Scan type : Progressive Bits/(Pixel*Frame) : 0.122 Stream size : 1.22 GiB (80%) Writing library : x264 core 157 r2935 545de2f Encoding settings : cabac=1 / ref=2 / deblock=1:0:0 / analyse=0x1:0x111 / me=hex / subme=6 / psy=1 / psy_rd=1.00:0.00 / mixed_ref=1 / me_range=16 / chroma_me=1 / trellis=1 / 8x8dct=0 / cqm=0 / deadzone=21,11 / fast_pskip=1 / chroma_qp_offset=-2 / threads=17 / lookahead_threads=2 / sliced_threads=0 / nr=0 / decimate=1 / interlaced=0 / bluray_compat=0 / constrained_intra=0 / bframes=3 / b_pyramid=2 / b_adapt=1 / b_bias=0 / direct=1 / weightb=1 / open_gop=0 / weightp=1 / keyint=240 / keyint_min=24 / scenecut=40 / intra_refresh=0 / rc_lookahead=30 / rc=2pass / mbtree=1 / bitrate=2000 / ratetol=1.0 / qcomp=0.60 / qpmin=0 / qpmax=69 / qpstep=4 / cplxblur=20.0 / qblur=0.5 / vbv_maxrate=14000 / vbv_bufsize=14000 / nal_hrd=none / filler=0 / ip_ratio=1.40 / aq=1:1.00 Default : Yes Forced : No Color range : Limited Color primaries : BT.709 Transfer characteristics : BT.709 Matrix coefficients : BT.709 Audio ID : 2 Format : AC-3 Format/Info : Audio Coding 3 Commercial name : Dolby Digital Codec ID : A_AC3 Duration : 1 h 29 min Bit rate mode : Constant Bit rate : 448 kb/s Channel(s) : 6 channels Channel layout : L R C LFE Ls Rs Sampling rate : 48.0 kHz Frame rate : 31.250 FPS (1536 SPF) Bit depth : 16 bits Compression mode : Lossy Delay relative to video : -5 ms Stream size : 287 MiB (18%) Title : Surround Language : French Service kind : Complete Main Default : Yes Forced : No Menu 00:00:00.000 : :Chapter 1 00:04:50.081 : :Chapter 2 00:10:59.159 : :Chapter 3 00:14:35.792 : :Chapter 4 00:22:39.108 : :Chapter 5 00:25:11.844 : :Chapter 6 00:31:24.383 : :Chapter 7 00:36:12.253 : :Chapter 8 00:41:08.299 : :Chapter 9 00:46:37.878 : :Chapter 10 00:49:30.092 : :Chapter 11 00:55:04.927 : :Chapter 12 01:00:08.230 : :Chapter 13 01:05:57.495 : :Chapter 14 01:12:06.322 : :Chapter 15 01:17:47.371 : :Chapter 16


Autres versions disponibles