Films

Lucky Day

07-12-2019
Lucky Day


Origine du film :France
Réalisateur(s) :Roger Avary
Acteur(s) :Luke Bracey, Nina Dobrev, Crispin Glover
Genre :Thriller,Action,Policier,
Année de sortie :2019-09-18
Titre Original :Lucky Day
Note spectateur : - 2.9/5
Qualité/Format/Langue: HDLight 1080p FRENCH

C'est le grand jour, Red sort de prison, après avoir purgé deux ans pour un braquage de banque qui s'est soldé par la mort de son complice. Il retrouve sa femme Chloé qui l'a attendu tout en élevant seule leur fille Beatrice. Le même jour, Luc, le frère de son ancien complice, tueur à gages et psychopathe notoire, débarque assoiffé de vengeance et avec la ferme intention de l'éliminer… Show/hide text Lucky.Day.2019.FRENCH.1080p.HDLight.AC3.x264-RDH.WwW.Zone-Telechargement.NET.mkv Format : Matroska Format version : Version 4 File size : 2.39 GiB Duration : 1 h 39 min Overall bit rate : 3 450 kb/s Encoded date : UTC 2019-12-07 03:16:39 Writing application : mkvmerge v29.0.0 ('Like It Or Not') 32-bit Writing library : libebml v1.3.6 + libmatroska v1.4.9 / Lavf58.29.100 Video ID : 1 Format : AVC Format/Info : Advanced Video Codec Format profile : [email protected] Format settings : CABAC / 4 Ref Frames Format settings, CABAC : Yes Format settings, ReFrames : 4 frames Codec ID : V_MPEG4/ISO/AVC Duration : 1 h 39 min Bit rate : 3 000 kb/s Width : 1 920 pixels Height : 800 pixels Display aspect ratio : 2.40:1 Frame rate mode : Constant Frame rate : 23.976 (24000/1001) FPS Color space : YUV Chroma subsampling : 4:2:0 Bit depth : 8 bits Scan type : Progressive Bits/(Pixel*Frame) : 0.081 Stream size : 2.08 GiB (87%) Writing library : x264 core 157 r2935 545de2f Encoding settings : cabac=1 / ref=2 / deblock=1:0:0 / analyse=0x1:0x111 / me=hex / subme=6 / psy=1 / psy_rd=1.00:0.00 / mixed_ref=1 / me_range=16 / chroma_me=1 / trellis=1 / 8x8dct=0 / cqm=0 / deadzone=21,11 / fast_pskip=1 / chroma_qp_offset=-2 / threads=25 / lookahead_threads=4 / sliced_threads=0 / nr=0 / decimate=1 / interlaced=0 / bluray_compat=0 / constrained_intra=0 / bframes=3 / b_pyramid=2 / b_adapt=1 / b_bias=0 / direct=1 / weightb=1 / open_gop=0 / weightp=1 / keyint=240 / keyint_min=24 / scenecut=40 / intra_refresh=0 / rc_lookahead=30 / rc=2pass / mbtree=1 / bitrate=3000 / ratetol=1.0 / qcomp=0.60 / qpmin=0 / qpmax=69 / qpstep=4 / cplxblur=20.0 / qblur=0.5 / vbv_maxrate=20000 / vbv_bufsize=25000 / nal_hrd=none / filler=0 / ip_ratio=1.40 / aq=1:1.00 Default : Yes Forced : No Color range : Limited Color primaries : BT.709 Transfer characteristics : BT.709 Matrix coefficients : BT.709 Audio ID : 2 Format : AC-3 Format/Info : Audio Coding 3 Commercial name : Dolby Digital Codec ID : A_AC3 Duration : 1 h 39 min Bit rate mode : Constant Bit rate : 448 kb/s Channel(s) : 6 channels Channel layout : L R C LFE Ls Rs Sampling rate : 48.0 kHz Frame rate : 31.250 FPS (1536 SPF) Bit depth : 16 bits Compression mode : Lossy Delay relative to video : -5 ms Stream size : 318 MiB (13%) Title : French Language : French Service kind : Complete Main Default : Yes Forced : No Text ID : 3 Format : UTF-8 Codec ID : S_TEXT/UTF8 Codec ID/Info : UTF-8 Plain Text Duration : 1 h 16 min Bit rate : 0 b/s Count of elements : 4 Stream size : 76.0 Bytes (0%) Title : FORCED Language : French Default : Yes Forced : Yes Menu 00:00:00.000 : :00:00:00.000 00:06:02.195 : :00:06:02.070 00:10:49.691 : :00:10:49.649 00:18:16.846 : :00:18:16.846 00:23:41.879 : :00:23:41.837 00:30:44.551 : :00:30:44.551 00:37:38.131 : :00:37:38.131 00:43:59.554 : :00:43:59.554 00:48:35.413 : :00:48:35.412 00:53:35.337 : :00:53:35.337 01:00:05.519 : :01:00:05.519 01:07:10.443 : :01:07:10.443 01:11:08.222 : :01:11:08.222 01:17:25.141 : :01:17:25.140 01:24:48.584 : :01:24:48.583 01:29:50.635 : :01:29:50.594


Autres versions disponibles