Films

Ad Astra

07-12-2019
Ad Astra


Origine du film :U.S.A.
Réalisateur(s) :James Gray
Acteur(s) :Brad Pitt, Tommy Lee Jones, Ruth Negga
Genre :Science fiction,Drame,
Année de sortie :2019-09-18
Titre Original :Ad Astra
Note spectateur : - 3.1/5
Qualité/Format/Langue: HDLight 720p TRUEFRENCH

L'astronaute Roy McBride s'aventure jusqu'aux confins du système solaire à la recherche de son père disparu et pour résoudre un mystère qui menace la survie de notre planète. Show/hide text Ad.Astra.2019.TRUEFRENCH.720p.HDLight.AC3.x264-RDH.WwW.Zone-Telechargement.NET.mkv Format : Matroska Format version : Version 4 File size : 2.11 GiB Duration : 2 h 3 min Overall bit rate : 2 449 kb/s Encoded date : UTC 2019-12-07 02:42:16 Writing application : mkvmerge v29.0.0 ('Like It Or Not') 32-bit Writing library : libebml v1.3.6 + libmatroska v1.4.9 / Lavf58.29.100 Video ID : 1 Format : AVC Format/Info : Advanced Video Codec Format profile : [email protected] Format settings : CABAC / 4 Ref Frames Format settings, CABAC : Yes Format settings, ReFrames : 4 frames Codec ID : V_MPEG4/ISO/AVC Duration : 2 h 3 min Bit rate : 2 000 kb/s Width : 1 280 pixels Height : 536 pixels Display aspect ratio : 2.40:1 Frame rate mode : Constant Frame rate : 23.976 (24000/1001) FPS Color space : YUV Chroma subsampling : 4:2:0 Bit depth : 8 bits Scan type : Progressive Bits/(Pixel*Frame) : 0.122 Stream size : 1.72 GiB (82%) Writing library : x264 core 157 r2935 545de2f Encoding settings : cabac=1 / ref=2 / deblock=1:0:0 / analyse=0x1:0x111 / me=hex / subme=6 / psy=1 / psy_rd=1.00:0.00 / mixed_ref=1 / me_range=16 / chroma_me=1 / trellis=1 / 8x8dct=0 / cqm=0 / deadzone=21,11 / fast_pskip=1 / chroma_qp_offset=-2 / threads=17 / lookahead_threads=2 / sliced_threads=0 / nr=0 / decimate=1 / interlaced=0 / bluray_compat=0 / constrained_intra=0 / bframes=3 / b_pyramid=2 / b_adapt=1 / b_bias=0 / direct=1 / weightb=1 / open_gop=0 / weightp=1 / keyint=240 / keyint_min=24 / scenecut=40 / intra_refresh=0 / rc_lookahead=30 / rc=2pass / mbtree=1 / bitrate=2000 / ratetol=1.0 / qcomp=0.60 / qpmin=0 / qpmax=69 / qpstep=4 / cplxblur=20.0 / qblur=0.5 / vbv_maxrate=14000 / vbv_bufsize=14000 / nal_hrd=none / filler=0 / ip_ratio=1.40 / aq=1:1.00 Default : Yes Forced : No Color range : Limited Color primaries : BT.709 Transfer characteristics : BT.709 Matrix coefficients : BT.709 Audio ID : 2 Format : AC-3 Format/Info : Audio Coding 3 Commercial name : Dolby Digital Codec ID : A_AC3 Duration : 2 h 3 min Bit rate mode : Constant Bit rate : 448 kb/s Channel(s) : 6 channels Channel layout : L R C LFE Ls Rs Sampling rate : 48.0 kHz Frame rate : 31.250 FPS (1536 SPF) Bit depth : 16 bits Compression mode : Lossy Delay relative to video : -5 ms Stream size : 394 MiB (18%) Language : French Service kind : Complete Main Default : Yes Forced : No Text ID : 3 Format : UTF-8 Codec ID : S_TEXT/UTF8 Codec ID/Info : UTF-8 Plain Text Duration : 2 h 2 min Bit rate : 1 b/s Count of elements : 51 Stream size : 1.61 KiB (0%) Title : FORCED Language : French Default : Yes Forced : Yes Menu 00:00:00.000 : :Chapter 1 00:04:22.679 : :Chapter 2 00:08:48.778 : :Chapter 3 00:16:25.776 : :Chapter 4 00:22:33.811 : :Chapter 5 00:30:08.515 : :Chapter 6 00:35:08.273 : :Chapter 7 00:40:33.348 : :Chapter 8 00:44:45.391 : :Chapter 9 00:48:56.809 : :Chapter 10 00:53:51.812 : :Chapter 11 00:56:43.775 : :Chapter 12 01:01:32.063 : :Chapter 13 01:07:23.957 : :Chapter 14 01:12:12.411 : :Chapter 15 01:16:59.115 : :Chapter 16 01:21:35.182 : :Chapter 17 01:24:42.661 : :Chapter 18 01:31:16.554 : :Chapter 19 01:36:27.031 : :Chapter 20 01:40:59.595 : :Chapter 21 01:46:26.755 : :Chapter 22 01:50:00.052 : :Chapter 23 01:53:17.791 : :Chapter 24


Autres versions disponibles