Films

Dauntless: The Battle of Midway

06-12-2019
Dauntless: The Battle of Midway


Origine du film :U.S.A.
Réalisateur(s) :Mike Phillips
Acteur(s) :Aidan Bristow
Genre :Guerre,
Titre Original :Dauntless: The Battle of Midway
Note spectateur : - 1.7/5
Qualité/Format/Langue: HDLight 720p FRENCH

Juin 1942. La marine impériale japonaise prépare une nouvelle attaque pour éliminer définitivement les forces aéronavales américaines. Dans l'espoir de changer le cours de la guerre, les Etats-Unis rassemblent leur flotte pour une contre-attaque dans le Pacifique nord : on se dirige vers la bataille de Midway. Show/hide text Dauntless.The.Battle.of.Midway.2019.FRENCH.720p.HDLight.AC3.x264-RDH.WwW.Zone-Telechargement.NET.mkv Format : Matroska Format version : Version 4 File size : 1.67 GiB Duration : 1 h 37 min Overall bit rate : 2 449 kb/s Encoded date : UTC 2019-12-06 01:25:07 Writing application : mkvmerge v29.0.0 ('Like It Or Not') 32-bit Writing library : libebml v1.3.6 + libmatroska v1.4.9 / Lavf58.29.100 Video ID : 1 Format : AVC Format/Info : Advanced Video Codec Format profile : [email protected] Format settings : CABAC / 4 Ref Frames Format settings, CABAC : Yes Format settings, ReFrames : 4 frames Codec ID : V_MPEG4/ISO/AVC Duration : 1 h 37 min Bit rate : 2 000 kb/s Width : 1 280 pixels Height : 536 pixels Display aspect ratio : 2.40:1 Frame rate mode : Constant Frame rate : 23.976 (24000/1001) FPS Color space : YUV Chroma subsampling : 4:2:0 Bit depth : 8 bits Scan type : Progressive Bits/(Pixel*Frame) : 0.122 Stream size : 1.37 GiB (82%) Writing library : x264 core 157 r2935 545de2f Encoding settings : cabac=1 / ref=2 / deblock=1:0:0 / analyse=0x1:0x111 / me=hex / subme=6 / psy=1 / psy_rd=1.00:0.00 / mixed_ref=1 / me_range=16 / chroma_me=1 / trellis=1 / 8x8dct=0 / cqm=0 / deadzone=21,11 / fast_pskip=1 / chroma_qp_offset=-2 / threads=17 / lookahead_threads=2 / sliced_threads=0 / nr=0 / decimate=1 / interlaced=0 / bluray_compat=0 / constrained_intra=0 / bframes=3 / b_pyramid=2 / b_adapt=1 / b_bias=0 / direct=1 / weightb=1 / open_gop=0 / weightp=1 / keyint=240 / keyint_min=24 / scenecut=40 / intra_refresh=0 / rc_lookahead=30 / rc=2pass / mbtree=1 / bitrate=2000 / ratetol=1.0 / qcomp=0.60 / qpmin=0 / qpmax=69 / qpstep=4 / cplxblur=20.0 / qblur=0.5 / vbv_maxrate=14000 / vbv_bufsize=14000 / nal_hrd=none / filler=0 / ip_ratio=1.40 / aq=1:1.00 Default : Yes Forced : No Color range : Limited Color primaries : BT.709 Transfer characteristics : BT.709 Matrix coefficients : BT.709 Audio ID : 2 Format : AC-3 Format/Info : Audio Coding 3 Commercial name : Dolby Digital Codec ID : A_AC3 Duration : 1 h 37 min Bit rate mode : Constant Bit rate : 448 kb/s Channel(s) : 6 channels Channel layout : L R C LFE Ls Rs Sampling rate : 48.0 kHz Frame rate : 31.250 FPS (1536 SPF) Bit depth : 16 bits Compression mode : Lossy Delay relative to video : -5 ms Stream size : 313 MiB (18%) Language : French Service kind : Complete Main Default : Yes Forced : No Text ID : 3 Format : UTF-8 Codec ID : S_TEXT/UTF8 Codec ID/Info : UTF-8 Plain Text Duration : 3 s 503 ms Bit rate : 107 b/s Count of elements : 1 Stream size : 47.0 Bytes (0%) Title : FORCED Language : French Default : Yes Forced : Yes Menu 00:00:00.000 : :00:00:00.000 00:05:34.084 : :00:05:34.000 00:15:38.938 : :00:15:38.938 00:22:41.986 : :00:22:41.944 00:38:21.341 : :00:38:21.216 00:48:19.146 : :00:48:19.063 00:52:44.036 : :00:52:43.952 00:56:52.242 : :00:56:52.117 01:01:26.600 : :01:01:26.474 01:10:22.593 : :01:10:22.510 01:15:59.889 : :01:15:59.805 01:22:47.880 : :01:22:47.754


Autres versions disponibles