Films

Ladies in Black

06-12-2019
Ladies in Black


Origine du film :Australie
Réalisateur(s) :Bruce Beresford
Acteur(s) :Angourie Rice, Julia Ormond, Rachel Taylor
Genre :Comédie dramatique,
Titre Original :Ladies in Black
Qualité/Format/Langue: HDLight 720p FRENCH

1959. Une lycéenne, dans l'attente de ses résultats d'examen, se trouve un petit job d'été. Au contact de ses collègues, elle va ouvrir les yeux sur un nouveau monde. Show/hide text Ladies.in.Black.2018.FRENCH.720p.HDLight.AC3.x264-RDH.WwW.Zone-Telechargement.NET.mkv Format : Matroska Format version : Version 4 File size : 1.87 GiB Duration : 1 h 49 min Overall bit rate : 2 446 kb/s Encoded date : UTC 2019-12-05 21:20:21 Writing application : HandBrake 1.3.0 2019110900 Writing library : Lavf58.29.100 ErrorDetectionType : Per level 1 Video ID : 1 Format : AVC Format/Info : Advanced Video Codec Format profile : [email protected] Format settings : CABAC / 4 Ref Frames Format settings, CABAC : Yes Format settings, ReFrames : 4 frames Codec ID : V_MPEG4/ISO/AVC Duration : 1 h 49 min Bit rate : 2 000 kb/s Width : 1 280 pixels Height : 544 pixels Display aspect ratio : 2.35:1 Frame rate mode : Constant Frame rate : 23.976 (24000/1001) FPS Color space : YUV Chroma subsampling : 4:2:0 Bit depth : 8 bits Scan type : Progressive Bits/(Pixel*Frame) : 0.120 Stream size : 1.49 GiB (80%) Writing library : x264 core 157 r2935 545de2f Encoding settings : cabac=1 / ref=2 / deblock=1:0:0 / analyse=0x1:0x111 / me=hex / subme=6 / psy=1 / psy_rd=1.00:0.00 / mixed_ref=1 / me_range=16 / chroma_me=1 / trellis=1 / 8x8dct=0 / cqm=0 / deadzone=21,11 / fast_pskip=1 / chroma_qp_offset=-2 / threads=17 / lookahead_threads=2 / sliced_threads=0 / nr=0 / decimate=1 / interlaced=0 / bluray_compat=0 / constrained_intra=0 / bframes=3 / b_pyramid=2 / b_adapt=1 / b_bias=0 / direct=1 / weightb=1 / open_gop=0 / weightp=1 / keyint=240 / keyint_min=24 / scenecut=40 / intra_refresh=0 / rc_lookahead=30 / rc=2pass / mbtree=1 / bitrate=2000 / ratetol=1.0 / qcomp=0.60 / qpmin=0 / qpmax=69 / qpstep=4 / cplxblur=20.0 / qblur=0.5 / vbv_maxrate=14000 / vbv_bufsize=14000 / nal_hrd=none / filler=0 / ip_ratio=1.40 / aq=1:1.00 Default : Yes Forced : No Color range : Limited Color primaries : BT.709 Transfer characteristics : BT.709 Matrix coefficients : BT.709 Audio ID : 2 Format : AC-3 Format/Info : Audio Coding 3 Commercial name : Dolby Digital Codec ID : A_AC3 Duration : 1 h 49 min Bit rate mode : Constant Bit rate : 448 kb/s Channel(s) : 6 channels Channel layout : L R C LFE Ls Rs Sampling rate : 48.0 kHz Frame rate : 31.250 FPS (1536 SPF) Bit depth : 16 bits Compression mode : Lossy Delay relative to video : -5 ms Stream size : 350 MiB (18%) Title : Surround Language : French Service kind : Complete Main Default : Yes Forced : No Menu 00:00:00.000 : :Chapitre 1 00:10:12.821 : :Chapitre 2 00:20:02.284 : :Chapitre 3 00:30:01.300 : :Chapitre 4 00:40:01.649 : :Chapitre 5 00:50:03.167 : :Chapitre 6 01:00:00.847 : :Chapitre 7 01:10:03.199 : :Chapitre 8 01:20:40.961 : :Chapitre 9 01:30:06.318 : :Chapitre 10


Autres versions disponibles