Films

Ça : Chapitre 2

01-12-2019
Ça : Chapitre 2


Origine du film :U.S.A.
Réalisateur(s) :Andy Muschietti
Acteur(s) :Bill Skarsgård, James McAvoy, Jessica Chastain
Genre :Epouvante-horreur,
Année de sortie :2019-09-11
Titre Original :It Chapter Two
Note spectateur : - 3.3/5
Qualité/Format/Langue: HDLight 720p FRENCH

27 ans après la victoire du Club des Ratés sur Grippe-Sou, le sinistre Clown est de retour pour semer la terreur dans les rues de Derry. Désormais adultes, les membres du Club ont tous quitté la petite ville pour faire leur vie. Cependant, lorsqu'on signale de nouvelles disparitions d'enfants, Mike, le seul du groupe à être demeuré sur place, demande aux autres de le rejoindre. Show/hide text General Unique ID : 196146556285822276097398327328980497980 (0x939073DF297164272460EB87139A763C) Complete name : C:UsersBilamps ATVideosIt.Chapter.Two.2019.FRENCH.HDLight.AC3.x264-RDH.WwW.Zone-Telechargement.NET.mkv Format : Matroska Format version : Version 4 File size : 2.90 GiB Duration : 2 h 49 min Overall bit rate : 2 449 kb/s Encoded date : UTC 2019-12-01 12:20:16 Writing application : mkvmerge v29.0.0 ('Like It Or Not') 32-bit Writing library : libebml v1.3.6 + libmatroska v1.4.9 / Lavf58.29.100 Video ID : 1 Format : AVC Format/Info : Advanced Video Codec Format profile : [email protected] Format settings : CABAC / 4 Ref Frames Format settings, CABAC : Yes Format settings, ReFrames : 4 frames Codec ID : V_MPEG4/ISO/AVC Duration : 2 h 49 min Bit rate : 2 000 kb/s Width : 1 280 pixels Height : 536 pixels Display aspect ratio : 2.40:1 Frame rate mode : Constant Frame rate : 23.976 (24000/1001) FPS Color space : YUV Chroma subsampling : 4:2:0 Bit depth : 8 bits Scan type : Progressive Bits/(Pixel*Frame) : 0.122 Stream size : 2.37 GiB (82%) Writing library : x264 core 157 r2935 545de2f Encoding settings : cabac=1 / ref=2 / deblock=1:0:0 / analyse=0x1:0x111 / me=hex / subme=6 / psy=1 / psy_rd=1.00:0.00 / mixed_ref=1 / me_range=16 / chroma_me=1 / trellis=1 / 8x8dct=0 / cqm=0 / deadzone=21,11 / fast_pskip=1 / chroma_qp_offset=-2 / threads=17 / lookahead_threads=2 / sliced_threads=0 / nr=0 / decimate=1 / interlaced=0 / bluray_compat=0 / constrained_intra=0 / bframes=3 / b_pyramid=2 / b_adapt=1 / b_bias=0 / direct=1 / weightb=1 / open_gop=0 / weightp=1 / keyint=240 / keyint_min=24 / scenecut=40 / intra_refresh=0 / rc_lookahead=30 / rc=2pass / mbtree=1 / bitrate=2000 / ratetol=1.0 / qcomp=0.60 / qpmin=0 / qpmax=69 / qpstep=4 / cplxblur=20.0 / qblur=0.5 / vbv_maxrate=14000 / vbv_bufsize=14000 / nal_hrd=none / filler=0 / ip_ratio=1.40 / aq=1:1.00 Default : Yes Forced : No Color range : Limited Color primaries : BT.709 Transfer characteristics : BT.709 Matrix coefficients : BT.709 Audio ID : 2 Format : AC-3 Format/Info : Audio Coding 3 Commercial name : Dolby Digital Codec ID : A_AC3 Duration : 2 h 49 min Bit rate mode : Constant Bit rate : 448 kb/s Channel(s) : 6 channels Channel layout : L R C LFE Ls Rs Sampling rate : 48.0 kHz Frame rate : 31.250 FPS (1536 SPF) Bit depth : 16 bits Compression mode : Lossy Delay relative to video : -5 ms Stream size : 543 MiB (18%) Language : French Service kind : Complete Main Default : Yes Forced : No Text ID : 3 Format : UTF-8 Codec ID : S_TEXT/UTF8 Codec ID/Info : UTF-8 Plain Text Duration : 2 h 48 min Bit rate : 0 b/s Count of elements : 20 Stream size : 747 Bytes (0%) Title : FORCED Language : French Default : Yes Forced : Yes Menu 00:00:00.000 : :00:00:00.000 00:09:10.341 : :00:09:10.341 00:19:06.354 : :00:19:06.354 00:27:00.744 : :00:27:00.744 00:37:51.227 : :00:37:51.227 00:46:20.027 : :00:46:19.986 00:55:46.802 : :00:55:46.802 01:05:36.474 : :01:05:36.474 01:17:19.135 : :01:17:19.134 01:29:21.565 : :01:29:21.565 01:41:02.974 : :01:41:02.974 01:49:11.336 : :01:49:11.336 01:59:33.833 : :01:59:33.833 02:05:31.774 : :02:05:31.774 02:14:25.933 : :02:14:25.933 02:22:43.889 : :02:22:43.889 02:32:57.168 : :02:32:57.168 02:42:15.643 : :02:42:15.643 02:44:52.549 : :02:44:52.508


Autres versions disponibles