Films

Skin

01-12-2019
Skin


Origine du film :U.S.A.
Réalisateur(s) :Guy Nattiv
Acteur(s) :Jamie Bell, Danielle Macdonald, Vera Farmiga
Genre :Drame,Biopic,
Titre Original :Skin
Note spectateur : - 3.4/5
Qualité/Format/Langue: HDLight 720p FRENCH

L'histoire vraie de Bryon “Pitbull” Widner, membre d'un gang de néo-nazis qui fera face à des conséquences mortelles lorsqu'il décidera de changer de vie... Show/hide text General Unique ID : 184898504817410770264729992676882945102 (0x8B1A281E25FCC7875EE8139B509E944E) Complete name : C:UsersBilamps ATVideosSkin.2018.FRENCH.720p.HDLight.AC3.x264-RDH.WwW.Zone-Telechargement.NET.mkv Format : Matroska Format version : Version 4 File size : 2.02 GiB Duration : 1 h 58 min Overall bit rate : 2 448 kb/s Encoded date : UTC 2019-12-01 12:54:53 Writing application : mkvmerge v29.0.0 ('Like It Or Not') 32-bit Writing library : libebml v1.3.6 + libmatroska v1.4.9 / Lavf58.29.100 Video ID : 1 Format : AVC Format/Info : Advanced Video Codec Format profile : [email protected] Format settings : CABAC / 4 Ref Frames Format settings, CABAC : Yes Format settings, ReFrames : 4 frames Codec ID : V_MPEG4/ISO/AVC Duration : 1 h 58 min Bit rate : 2 000 kb/s Width : 1 280 pixels Height : 536 pixels Display aspect ratio : 2.40:1 Frame rate mode : Constant Frame rate : 23.976 (24000/1001) FPS Color space : YUV Chroma subsampling : 4:2:0 Bit depth : 8 bits Scan type : Progressive Bits/(Pixel*Frame) : 0.122 Stream size : 1.65 GiB (82%) Writing library : x264 core 157 r2935 545de2f Encoding settings : cabac=1 / ref=2 / deblock=1:0:0 / analyse=0x1:0x111 / me=hex / subme=6 / psy=1 / psy_rd=1.00:0.00 / mixed_ref=1 / me_range=16 / chroma_me=1 / trellis=1 / 8x8dct=0 / cqm=0 / deadzone=21,11 / fast_pskip=1 / chroma_qp_offset=-2 / threads=17 / lookahead_threads=2 / sliced_threads=0 / nr=0 / decimate=1 / interlaced=0 / bluray_compat=0 / constrained_intra=0 / bframes=3 / b_pyramid=2 / b_adapt=1 / b_bias=0 / direct=1 / weightb=1 / open_gop=0 / weightp=1 / keyint=240 / keyint_min=24 / scenecut=40 / intra_refresh=0 / rc_lookahead=30 / rc=2pass / mbtree=1 / bitrate=2000 / ratetol=1.0 / qcomp=0.60 / qpmin=0 / qpmax=69 / qpstep=4 / cplxblur=20.0 / qblur=0.5 / vbv_maxrate=14000 / vbv_bufsize=14000 / nal_hrd=none / filler=0 / ip_ratio=1.40 / aq=1:1.00 Default : Yes Forced : No Color range : Limited Color primaries : BT.709 Transfer characteristics : BT.709 Matrix coefficients : BT.709 Audio ID : 2 Format : AC-3 Format/Info : Audio Coding 3 Commercial name : Dolby Digital Codec ID : A_AC3 Duration : 1 h 58 min Bit rate mode : Constant Bit rate : 448 kb/s Channel(s) : 6 channels Channel layout : L R C LFE Ls Rs Sampling rate : 48.0 kHz Frame rate : 31.250 FPS (1536 SPF) Bit depth : 16 bits Compression mode : Lossy Delay relative to video : -5 ms Stream size : 379 MiB (18%) Language : French Service kind : Complete Main Default : Yes Forced : No Text ID : 3 Format : UTF-8 Codec ID : S_TEXT/UTF8 Codec ID/Info : UTF-8 Plain Text Duration : 1 h 50 min Bit rate : 0 b/s Count of elements : 14 Stream size : 453 Bytes (0%) Title : FORCED Language : French Default : Yes Forced : Yes Menu 00:00:00.000 : :00:00:00.000 00:05:42.884 : :00:05:42.884 00:12:36.339 : :00:12:36.255 00:19:51.691 : :00:19:51.649 00:27:48.542 : :00:27:48.417 00:36:34.234 : :00:36:34.192 00:43:53.923 : :00:43:53.798 00:50:38.536 : :00:50:38.535 00:56:36.018 : :00:56:35.892 01:04:00.920 : :01:04:00.795 01:09:18.154 : :01:09:18.071 01:17:04.161 : :01:17:04.036 01:26:44.574 : :01:26:44.533 01:33:11.086 : :01:33:10.960 01:42:13.044 : :01:42:12.918 01:50:56.275 : :01:50:56.149


Autres versions disponibles