Films

Ça : Chapitre 2

20-11-2019
Ça : Chapitre 2


Origine du film :U.S.A.
Réalisateur(s) :Andy Muschietti
Acteur(s) :Bill Skarsgård, James McAvoy, Jessica Chastain
Genre :Epouvante-horreur,
Année de sortie :2019-09-11
Titre Original :It Chapter Two
Note spectateur : - 3.3/5
Qualité/Format/Langue: HDLight 1080p MULTI

27 ans après la victoire du Club des Ratés sur Grippe-Sou, le sinistre Clown est de retour pour semer la terreur dans les rues de Derry. Désormais adultes, les membres du Club ont tous quitté la petite ville pour faire leur vie. Cependant, lorsqu'on signale de nouvelles disparitions d'enfants, Mike, le seul du groupe à être demeuré sur place, demande aux autres de le rejoindre. NFO Show/hide text General Unique ID : 263792225688949968796567532642168811851 (0xC67488DF27F02875DCCEEE943BD9314B) Complete name : G:It.Chapter.Two.2019.MULTi.1080p.HDRip.Light.x264-iTCT.mkv Format : Matroska Format version : Version 4 File size : 2.48 GiB Duration : 2 h 49 min Overall bit rate : 2 099 kb/s Encoded date : UTC 2019-11-20 06:00:58 Writing application : mkvmerge v36.0.0 ('Is That Jazz?') 64-bit Writing library : libebml v1.3.9 + libmatroska v1.5.2 Video ID : 1 Format : AVC Format/Info : Advanced Video Codec Format profile : [email protected] Format settings : CABAC / 4 Ref Frames Format settings, CABAC : Yes Format settings, RefFrames : 4 frames Codec ID : V_MPEG4/ISO/AVC Duration : 2 h 49 min Bit rate : 1 600 kb/s Width : 1 920 pixels Height : 816 pixels Display aspect ratio : 2.35:1 Frame rate mode : Constant Frame rate : 23.976 (24000/1001) FPS Color space : YUV Chroma subsampling : 4:2:0 Bit depth : 8 bits Scan type : Progressive Bits/(Pixel*Frame) : 0.043 Stream size : 1.88 GiB (76%) Writing library : x264 core 157 r2935 545de2f Encoding settings : cabac=1 / ref=3 / deblock=1:0:0 / analyse=0x1:0x111 / me=hex / subme=7 / psy=1 / psy_rd=1.00:0.00 / mixed_ref=1 / me_range=16 / chroma_me=1 / trellis=1 / 8x8dct=0 / cqm=0 / deadzone=21,11 / fast_pskip=1 / chroma_qp_offset=-2 / threads=12 / lookahead_threads=2 / sliced_threads=0 / nr=0 / decimate=1 / interlaced=0 / bluray_compat=0 / constrained_intra=0 / bframes=3 / b_pyramid=2 / b_adapt=1 / b_bias=0 / direct=1 / weightb=1 / open_gop=0 / weightp=2 / keyint=240 / keyint_min=24 / scenecut=40 / intra_refresh=0 / rc_lookahead=40 / rc=abr / mbtree=1 / bitrate=1600 / ratetol=1.0 / qcomp=0.60 / qpmin=0 / qpmax=69 / qpstep=4 / vbv_maxrate=20000 / vbv_bufsize=25000 / nal_hrd=none / filler=0 / ip_ratio=1.40 / aq=1:1.00 Language : English Default : Yes Forced : No Color range : Limited Color primaries : BT.709 Transfer characteristics : BT.709 Matrix coefficients : BT.709 Audio #1 ID : 2 Format : AAC LC Format/Info : Advanced Audio Codec Low Complexity Codec ID : A_AAC-2 Duration : 2 h 49 min Bit rate : 127 kb/s Channel(s) : 2 channels Channel layout : L R Sampling rate : 48.0 kHz Frame rate : 46.875 FPS (1024 SPF) Compression mode : Lossy Stream size : 154 MiB (6%) Title : VFQ 2.0 AAC Language : French Default : Yes Forced : No Audio #2 ID : 3 Format : AC-3 Format/Info : Audio Coding 3 Commercial name : Dolby Digital Codec ID : A_AC3 Duration : 2 h 49 min Bit rate mode : Constant Bit rate : 384 kb/s Channel(s) : 6 channels Channel layout : L R C LFE Ls Rs Sampling rate : 48.0 kHz Frame rate : 31.250 FPS (1536 SPF) Bit depth : 16 bits Compression mode : Lossy Stream size : 465 MiB (18%) Title : VO 5.1 AC3 Language : English Service kind : Complete Main Default : No Forced : No Text #1 ID : 4 Format : UTF-8 Codec ID : S_TEXT/UTF8 Codec ID/Info : UTF-8 Plain Text Duration : 2 h 48 min Bit rate : 0 b/s Count of elements : 20 Stream size : 746 Bytes (0%) Title : Forced Language : French Default : Yes Forced : No Text #2 ID : 5 Format : UTF-8 Codec ID : S_TEXT/UTF8 Codec ID/Info : UTF-8 Plain Text Duration : 2 h 48 min Bit rate : 39 b/s Count of elements : 1965 Stream size : 49.4 KiB (0%) Title : French Language : French Default : No Forced : No Menu 00:00:00.000 : en:Chapter 1 00:09:10.000 : en:Chapter 2 00:19:42.000 : en:Chapter 3 00:27:01.000 : en:Chapter 4 00:37:50.000 : en:Chapter 5 00:46:08.000 : en:Chapter 6 00:55:47.000 : en:Chapter 7 01:05:36.000 : en:Chapter 8 01:17:19.000 : en:Chapter 9 01:29:22.000 : en:Chapter 10 01:41:03.000 : en:Chapter 11 01:49:11.000 : en:Chapter 12 01:59:34.000 : en:Chapter 13 02:05:32.000 : en:Chapter 14 02:14:26.000 : en:Chapter 15 02:22:44.000 : en:Chapter 16 02:32:57.000 : en:Chapter 17 02:42:16.000 : en:Chapter 18 02:44:53.000 : en:Chapter 19


Autres versions disponibles