Films

Ma

09-10-2019
Ma



Qualité/Format/Langue: HDLight 720p TRUEFRENCH

Sue Ann, une femme solitaire vit dans une petite ville de l'Ohio. Un jour, une adolescente ayant récemment emménagé, lui demande d'acheter de l'alcool pour elle et ses amis ; Sue Ann y voit la possibilité de se faire de nouveaux amis plus jeunes qu'elle. Elle propose aux adolescents de traîner et de boire en sûreté dans le sous-sol aménagé de sa maison. Mais Sue Ann a quelques règles...NFO Show/hide text General Unique ID : 303244349450507103288287189909509102902 (0xE422BCC02BC2D8CEA03469EB493DDD36) Complete name : Ma.2019.TRUEFRENCH.720p.BluRay.Light.x264.AC3-ACOOL.WwW.Zone-Telechargement.Net.mkv Format : Matroska Format version : Version 4 / Version 2 File size : 1.56 GiB Duration : 1 h 39 min Overall bit rate : 2 249 kb/s Movie name : Ma Encoded date : UTC 2019-10-08 21:55:12 Writing application : mkvmerge v25.0.0 ('Prog Noir') 64-bit Writing library : libebml v1.3.6 + libmatroska v1.4.9 Video ID : 1 Format : AVC Format/Info : Advanced Video Codec Format profile : [email protected] Format settings : CABAC / 4 Ref Frames Format settings, CABAC : Yes Format settings, ReFrames : 4 frames Codec ID : V_MPEG4/ISO/AVC Duration : 1 h 39 min Bit rate : 1 800 kb/s Width : 1 280 pixels Height : 536 pixels Display aspect ratio : 2.40:1 Original display aspect rat : 2.40:1 Frame rate mode : Constant Frame rate : 23.976 (24000/1001) FPS Color space : YUV Chroma subsampling : 4:2:0 Bit depth : 8 bits Scan type : Progressive Bits/(Pixel*Frame) : 0.109 Stream size : 1.25 GiB (80%) Writing library : x264 core 155 r2901 7d0ff22 Encoding settings : cabac=1 / ref=1 / deblock=1:0:0 / analyse=0x3:0x113 / me=hex / subme=2 / psy=1 / psy_rd=1.00:0.00 / mixed_ref=0 / me_range=16 / chroma_me=1 / trellis=0 / 8x8dct=1 / cqm=0 / deadzone=21,11 / fast_pskip=1 / chroma_qp_offset=0 / threads=17 / lookahead_threads=4 / sliced_threads=0 / nr=0 / decimate=1 / interlaced=0 / bluray_compat=0 / constrained_intra=0 / bframes=3 / b_pyramid=2 / b_adapt=1 / b_bias=0 / direct=1 / weightb=1 / open_gop=0 / weightp=1 / keyint=240 / keyint_min=24 / scenecut=40 / intra_refresh=0 / rc_lookahead=10 / rc=2pass / mbtree=1 / bitrate=1800 / ratetol=1.0 / qcomp=0.60 / qpmin=0 / qpmax=69 / qpstep=4 / cplxblur=20.0 / qblur=0.5 / vbv_maxrate=62500 / vbv_bufsize=78125 / nal_hrd=none / filler=0 / ip_ratio=1.40 / aq=1:1.00 Default : Yes Forced : No Color range : Limited Color primaries : BT.709 Transfer characteristics : BT.709 Matrix coefficients : BT.709 Audio ID : 2 Format : AC-3 Format/Info : Audio Coding 3 Codec ID : A_AC3 Duration : 1 h 39 min Bit rate mode : Constant Bit rate : 448 kb/s Channel(s) : 6 channels Channel positions : Front: L C R, Side: L R, LFE Sampling rate : 48.0 kHz Frame rate : 31.250 FPS (1536 SPF) Bit depth : 16 bits Compression mode : Lossy Stream size : 318 MiB (20%) Title : VFF AC3 5.1 448kb/s Language : French Service kind : Complete Main Default : Yes Forced : No Text #1 ID : 3 Format : UTF-8 Codec ID : S_TEXT/UTF8 Codec ID/Info : UTF-8 Plain Text Duration : 1 h 23 min Bit rate : 0 b/s Count of elements : 18 Stream size : 587 Bytes (0%) Title : FR Forced Language : French Default : Yes Forced : Yes Text #2 ID : 4 Format : UTF-8 Codec ID : S_TEXT/UTF8 Codec ID/Info : UTF-8 Plain Text Duration : 1 h 37 min Bit rate : 46 b/s Count of elements : 1350 Stream size : 33.1 KiB (0%) Title : FULL FR Language : French Default : No Forced : No Menu 00:00:00.000 : en:00:00:00.000 00:05:07.807 : en:00:05:07.807 00:10:42.350 : en:00:10:42.350 00:15:52.743 : en:00:15:52.743 00:19:27.166 : en:00:19:27.166 00:25:44.209 : en:00:25:44.209 00:30:02.801 : en:00:30:02.801 00:35:02.392 : en:00:35:02.392 00:40:19.792 : en:00:40:19.792 00:45:13.836 : en:00:45:13.836 00:50:08.964 : en:00:50:08.964 00:54:34.688 : en:00:54:34.688 00:57:49.675 : en:00:57:49.675 01:02:11.019 : en:01:02:11.019 01:06:09.299 : en:01:06:09.299 01:11:45.301 : en:01:11:45.301 01:16:23.829 : en:01:16:23.829 01:20:30.868 : en:01:20:30.868 01:25:23.327 : en:01:25:23.327 01:32:41.473 : en:01:32:41.473


Autres versions disponibles