Films

Teen Titans Go! Vs. Teen Titans

06-10-2019
Teen Titans Go! Vs. Teen Titans



Qualité/Format/Langue: HDLight 1080p MULTI

Les membres des deux super-équipes vont devoir s'affronter eux-mêmes et unir leurs forces pour venir à bout de Trigon, d'Hexagon et de Santa Claus dans ce cross-over entre les séries animées Teen Titans et Teen Titans Go!NFO Show/hide text General Unique ID : 254103636690941140763333089082495415163 (0xBF2A948DC26CB0E8881E5EEA3C3F337B) Complete name : Teen.Titans.Go.Vs.Teen.Titans.2019.MULTi.1080p.BluRay.Light.x264.AC3-ACOOL.WwW.Zone-Telechargement.Net.mkv Format : Matroska Format version : Version 4 / Version 2 File size : 1.99 GiB Duration : 1 h 16 min Overall bit rate : 3 698 kb/s Movie name : Teen Titans Go! Vs. Teen Titans Encoded date : UTC 2019-10-05 21:19:18 Writing application : mkvmerge v25.0.0 ('Prog Noir') 64-bit Writing library : libebml v1.3.6 + libmatroska v1.4.9 Video ID : 1 Format : AVC Format/Info : Advanced Video Codec Format profile : [email protected] Format settings : CABAC / 4 Ref Frames Format settings, CABAC : Yes Format settings, ReFrames : 4 frames Codec ID : V_MPEG4/ISO/AVC Duration : 1 h 16 min Bit rate : 2 800 kb/s Width : 1 920 pixels Height : 1 080 pixels Display aspect ratio : 16:9 Frame rate mode : Constant Frame rate : 23.976 (24000/1001) FPS Color space : YUV Chroma subsampling : 4:2:0 Bit depth : 8 bits Scan type : Progressive Bits/(Pixel*Frame) : 0.056 Stream size : 1.51 GiB (76%) Writing library : x264 core 155 r2901 7d0ff22 Encoding settings : cabac=1 / ref=1 / deblock=1:0:0 / analyse=0x3:0x113 / me=hex / subme=2 / psy=1 / psy_rd=1.00:0.00 / mixed_ref=0 / me_range=16 / chroma_me=1 / trellis=0 / 8x8dct=1 / cqm=0 / deadzone=21,11 / fast_pskip=1 / chroma_qp_offset=0 / threads=34 / lookahead_threads=8 / sliced_threads=0 / nr=0 / decimate=1 / interlaced=0 / bluray_compat=0 / constrained_intra=0 / bframes=3 / b_pyramid=2 / b_adapt=1 / b_bias=0 / direct=1 / weightb=1 / open_gop=0 / weightp=1 / keyint=240 / keyint_min=24 / scenecut=40 / intra_refresh=0 / rc_lookahead=10 / rc=2pass / mbtree=1 / bitrate=2800 / ratetol=1.0 / qcomp=0.60 / qpmin=0 / qpmax=69 / qpstep=4 / cplxblur=20.0 / qblur=0.5 / vbv_maxrate=62500 / vbv_bufsize=78125 / nal_hrd=none / filler=0 / ip_ratio=1.40 / aq=1:1.00 Default : Yes Forced : No Color range : Limited Color primaries : BT.709 Transfer characteristics : BT.709 Matrix coefficients : BT.709 Audio #1 ID : 2 Format : AC-3 Format/Info : Audio Coding 3 Codec ID : A_AC3 Duration : 1 h 16 min Bit rate mode : Constant Bit rate : 448 kb/s Channel(s) : 6 channels Channel positions : Front: L C R, Side: L R, LFE Sampling rate : 48.0 kHz Frame rate : 31.250 FPS (1536 SPF) Bit depth : 16 bits Compression mode : Lossy Stream size : 247 MiB (12%) Title : French AC3 5.1 448kb/s Language : French Service kind : Complete Main Default : Yes Forced : No Audio #2 ID : 3 Format : AC-3 Format/Info : Audio Coding 3 Codec ID : A_AC3 Duration : 1 h 16 min Bit rate mode : Constant Bit rate : 448 kb/s Channel(s) : 6 channels Channel positions : Front: L C R, Side: L R, LFE Sampling rate : 48.0 kHz Frame rate : 31.250 FPS (1536 SPF) Bit depth : 16 bits Compression mode : Lossy Stream size : 247 MiB (12%) Title : English AC3 5.1 448kb/s Language : English Service kind : Complete Main Default : No Forced : No Text #1 ID : 4 Format : UTF-8 Codec ID : S_TEXT/UTF8 Codec ID/Info : UTF-8 Plain Text Duration : 1 h 13 min Bit rate : 0 b/s Count of elements : 12 Stream size : 187 Bytes (0%) Title : FR Forced Language : French Default : Yes Forced : Yes Text #2 ID : 5 Format : UTF-8 Codec ID : S_TEXT/UTF8 Codec ID/Info : UTF-8 Plain Text Duration : 1 h 16 min Bit rate : 62 b/s Count of elements : 1158 Stream size : 35.0 KiB (0%) Title : FULL FR Language : French Default : No Forced : No Menu 00:00:00.000 : en:Chapter 01 00:07:53.598 : en:Chapter 02 00:13:38.484 : en:Chapter 03 00:21:22.239 : en:Chapter 04 00:29:00.280 : en:Chapter 05 00:37:13.481 : en:Chapter 06 00:46:42.091 : en:Chapter 07 00:53:44.847 : en:Chapter 08 01:03:11.705 : en:Chapter 09 01:13:37.246 : en:Chapter 10


Autres versions disponibles