Films

The Death and Return of Superman

02-10-2019
The Death and Return of Superman



Qualité/Format/Langue: HDLight 1080p MULTI

Dans se long métrage d'animation fluide et transparent de plus de deux heures. Soyez témoin de la bataille sans faille entre la Justice League et une force extraterrestre imparable connue uniquement sous le nom de Doomsday, une bataille que seul Superman peut terminer et changera à jamais le visage de Metropolis.NFO Show/hide text General Unique ID : 268668157558544653685307973152145439694 (0xCA1F9ADF9C7251A6CB543D9C12B07BCE) Complete name : The.Death.and.Return.of.Superman.2019.MULTi.1080p.BluRay.Light.x264.AC3-ACOOL.WwW.Zone-Telechargement.Net.mkv Format : Matroska Format version : Version 4 / Version 2 File size : 4.07 GiB Duration : 2 h 46 min Overall bit rate : 3 498 kb/s Movie name : The Death and Return of Superman Encoded date : UTC 2019-10-01 21:07:24 Writing application : mkvmerge v25.0.0 ('Prog Noir') 64-bit Writing library : libebml v1.3.6 + libmatroska v1.4.9 Video ID : 1 Format : AVC Format/Info : Advanced Video Codec Format profile : [email protected] Format settings : CABAC / 4 Ref Frames Format settings, CABAC : Yes Format settings, ReFrames : 4 frames Codec ID : V_MPEG4/ISO/AVC Duration : 2 h 46 min Bit rate : 2 600 kb/s Width : 1 920 pixels Height : 1 080 pixels Display aspect ratio : 16:9 Frame rate mode : Constant Frame rate : 23.976 (24000/1001) FPS Color space : YUV Chroma subsampling : 4:2:0 Bit depth : 8 bits Scan type : Progressive Bits/(Pixel*Frame) : 0.052 Stream size : 3.02 GiB (74%) Writing library : x264 core 155 r2901 7d0ff22 Encoding settings : cabac=1 / ref=1 / deblock=1:0:0 / analyse=0x3:0x113 / me=hex / subme=2 / psy=1 / psy_rd=1.00:0.00 / mixed_ref=0 / me_range=16 / chroma_me=1 / trellis=0 / 8x8dct=1 / cqm=0 / deadzone=21,11 / fast_pskip=1 / chroma_qp_offset=0 / threads=34 / lookahead_threads=8 / sliced_threads=0 / nr=0 / decimate=1 / interlaced=0 / bluray_compat=0 / constrained_intra=0 / bframes=3 / b_pyramid=2 / b_adapt=1 / b_bias=0 / direct=1 / weightb=1 / open_gop=0 / weightp=1 / keyint=240 / keyint_min=24 / scenecut=40 / intra_refresh=0 / rc_lookahead=10 / rc=2pass / mbtree=1 / bitrate=2600 / ratetol=1.0 / qcomp=0.60 / qpmin=0 / qpmax=69 / qpstep=4 / cplxblur=20.0 / qblur=0.5 / vbv_maxrate=62500 / vbv_bufsize=78125 / nal_hrd=none / filler=0 / ip_ratio=1.40 / aq=1:1.00 Default : Yes Forced : No Color range : Limited Color primaries : BT.709 Transfer characteristics : BT.709 Matrix coefficients : BT.709 Audio #1 ID : 2 Format : AC-3 Format/Info : Audio Coding 3 Codec ID : A_AC3 Duration : 2 h 46 min Bit rate mode : Constant Bit rate : 448 kb/s Channel(s) : 6 channels Channel positions : Front: L C R, Side: L R, LFE Sampling rate : 48.0 kHz Frame rate : 31.250 FPS (1536 SPF) Bit depth : 16 bits Compression mode : Lossy Stream size : 533 MiB (13%) Title : French AC3 5.1 448kb/s Language : French Service kind : Complete Main Default : Yes Forced : No Audio #2 ID : 3 Format : AC-3 Format/Info : Audio Coding 3 Codec ID : A_AC3 Duration : 2 h 46 min Bit rate mode : Constant Bit rate : 448 kb/s Channel(s) : 6 channels Channel positions : Front: L C R, Side: L R, LFE Sampling rate : 48.0 kHz Frame rate : 31.250 FPS (1536 SPF) Bit depth : 16 bits Compression mode : Lossy Stream size : 533 MiB (13%) Title : English AC3 5.1 448kb/s Language : English Service kind : Complete Main Default : No Forced : No Text ID : 4 Format : UTF-8 Codec ID : S_TEXT/UTF8 Codec ID/Info : UTF-8 Plain Text Duration : 2 h 45 min Bit rate : 49 b/s Count of elements : 1867 Stream size : 59.5 KiB (0%) Title : FULL FR Language : French Default : No Forced : No Menu 00:00:00.000 : :Chapter 01 00:07:48.927 : :Chapter 02 00:14:28.034 : :Chapter 03 00:25:28.193 : :Chapter 04 00:33:27.839 : :Chapter 05 00:43:19.847 : :Chapter 06 00:50:19.767 : :Chapter 07 01:00:19.282 : :Chapter 08 01:09:33.878 : :Chapter 09 01:18:22.656 : :Chapter 10 01:26:38.693 : :Chapter 11 01:32:43.266 : :Chapter 12 01:40:51.879 : :Chapter 13 01:51:19.965 : :Chapter 14 01:59:28.119 : :Chapter 15 02:08:28.743 : :Chapter 16 02:17:40.127 : :Chapter 17 02:27:44.064 : :Chapter 18 02:35:26.317 : :Chapter 19 02:42:50.094 : :Chapter 20


Autres versions disponibles