Films

Godzilla 2 - Roi des Monstres

29-09-2019
Godzilla 2 - Roi des Monstres


Origine du film :U.S.A.
Réalisateur(s) :Michael Dougherty
Acteur(s) :Kyle Chandler, Vera Farmiga, Millie Bobby Brown
Genre :Action,Science fiction,
Année de sortie :2019-05-29
Titre Original :Godzilla: King of the Monsters
Note spectateur : - 2.9/5
Qualité/Format/Langue: HDLight 720p TRUEFRENCH

L'agence crypto-zoologique Monarch doit faire face à une vague de monstres titanesques, comme Godzilla, Mothra, Rodan et surtout le redoutable roi Ghidorah à trois têtes. Un combat sans précédent entre ces créatures considérées jusque-là comme chimériques menace d'éclater. NFO Show/hide text General Unique ID : 183272931101112169560149925902538053239 (0x89E115254B7ECD1ECB40EF633DC91677) Complete name : Godzilla.King.of.the.Monsters.2019.TRUEFRENCH.720p.BluRay.Light.x264.AC3-ACOOL.WwW.Zone-Telechargement.Net.mkv Format : Matroska Format version : Version 4 / Version 2 File size : 1.89 GiB Duration : 2 h 11 min Overall bit rate : 2 049 kb/s Movie name : Godzilla 2 - Roi des Monstres Encoded date : UTC 2019-09-29 11:28:55 Writing application : mkvmerge v25.0.0 ('Prog Noir') 64-bit Writing library : libebml v1.3.6 + libmatroska v1.4.9 Video ID : 1 Format : AVC Format/Info : Advanced Video Codec Format profile : [email protected] Format settings : CABAC / 4 Ref Frames Format settings, CABAC : Yes Format settings, ReFrames : 4 frames Codec ID : V_MPEG4/ISO/AVC Duration : 2 h 11 min Bit rate : 1 600 kb/s Width : 1 280 pixels Height : 536 pixels Display aspect ratio : 2.40:1 Frame rate mode : Constant Frame rate : 23.976 (24000/1001) FPS Color space : YUV Chroma subsampling : 4:2:0 Bit depth : 8 bits Scan type : Progressive Bits/(Pixel*Frame) : 0.097 Stream size : 1.47 GiB (78%) Writing library : x264 core 155 r2901 7d0ff22 Encoding settings : cabac=1 / ref=1 / deblock=1:0:0 / analyse=0x3:0x113 / me=hex / subme=2 / psy=1 / psy_rd=1.00:0.00 / mixed_ref=0 / me_range=16 / chroma_me=1 / trellis=0 / 8x8dct=1 / cqm=0 / deadzone=21,11 / fast_pskip=1 / chroma_qp_offset=0 / threads=17 / lookahead_threads=4 / sliced_threads=0 / nr=0 / decimate=1 / interlaced=0 / bluray_compat=0 / constrained_intra=0 / bframes=3 / b_pyramid=2 / b_adapt=1 / b_bias=0 / direct=1 / weightb=1 / open_gop=0 / weightp=1 / keyint=240 / keyint_min=24 / scenecut=40 / intra_refresh=0 / rc_lookahead=10 / rc=2pass / mbtree=1 / bitrate=1600 / ratetol=1.0 / qcomp=0.60 / qpmin=0 / qpmax=69 / qpstep=4 / cplxblur=20.0 / qblur=0.5 / vbv_maxrate=62500 / vbv_bufsize=78125 / nal_hrd=none / filler=0 / ip_ratio=1.40 / aq=1:1.00 Default : Yes Forced : No Color range : Limited Color primaries : BT.709 Transfer characteristics : BT.709 Matrix coefficients : BT.709 Audio ID : 2 Format : AC-3 Format/Info : Audio Coding 3 Codec ID : A_AC3 Duration : 2 h 11 min Bit rate mode : Constant Bit rate : 448 kb/s Channel(s) : 6 channels Channel positions : Front: L C R, Side: L R, LFE Sampling rate : 48.0 kHz Frame rate : 31.250 FPS (1536 SPF) Bit depth : 16 bits Compression mode : Lossy Stream size : 422 MiB (22%) Title : French AC3 5.1 448kb/s Language : French Service kind : Complete Main Default : Yes Forced : No Text #1 ID : 3 Format : UTF-8 Codec ID : S_TEXT/UTF8 Codec ID/Info : UTF-8 Plain Text Duration : 1 h 59 min Bit rate : 1 b/s Count of elements : 28 Stream size : 1.04 KiB (0%) Title : FR Forced Language : French Default : Yes Forced : Yes Text #2 ID : 4 Format : UTF-8 Codec ID : S_TEXT/UTF8 Codec ID/Info : UTF-8 Plain Text Duration : 2 h 10 min Bit rate : 40 b/s Count of elements : 1276 Stream size : 38.8 KiB (0%) Title : FULL FR Language : French Default : No Forced : No Menu 00:00:00.000 : en:00:00:00.000 00:10:53.903 : en:00:10:53.903 00:18:06.836 : en:00:18:06.836 00:30:27.325 : en:00:30:27.325 00:45:18.633 : en:00:45:18.633 00:54:11.039 : en:00:54:11.039 01:05:41.646 : en:01:05:41.646 01:09:31.584 : en:01:09:31.584 01:19:31.308 : en:01:19:31.308 01:30:06.234 : en:01:30:06.234 01:38:36.869 : en:01:38:36.869 01:49:58.884 : en:01:49:58.884 01:59:28.828 : en:01:59:28.828


Autres versions disponibles