Films

Doom: Annihilation

26-09-2019
Doom: Annihilation


Origine du film :U.S.A.
Réalisateur(s) :Tony Giglio
Acteur(s) :Amy Manson, Dominic Mafham, Luke Allen-Gale
Genre :Epouvante-horreur,Action,
Titre Original :Doom: Annihilation
Note spectateur : - 3.0/5
Qualité/Format/Langue: HDLight 1080p MULTI

Cette nouvelle version de Doom voit le sanglant périple d'un groupe de Marines de l'Espace répondre à un signal de détresse envoyé depuis une colonie martienne. Une fois sur place, ils découvrent alors que la colonie est en réalité envahie par des créatures démoniaques tout droit sorties de l'Enfer. NFO Show/hide text General Unique ID : 77139092702389044788497065015141595257 (0x3A0872E7F442F4FE8CFFFF87C219F879) Complete name : Doom.Annihilation.2019.MULTi.1080p.BluRay.Light.x264.AC3-ACOOL.WwW.Zone-Telechargement.Net.mkv Format : Matroska Format version : Version 4 / Version 2 File size : 2.50 GiB Duration : 1 h 36 min Overall bit rate : 3 697 kb/s Movie name : Doom: Annihilation Encoded date : UTC 2019-09-25 20:24:02 Writing application : mkvmerge v25.0.0 ('Prog Noir') 64-bit Writing library : libebml v1.3.6 + libmatroska v1.4.9 Video ID : 1 Format : AVC Format/Info : Advanced Video Codec Format profile : [email protected] Format settings : CABAC / 4 Ref Frames Format settings, CABAC : Yes Format settings, ReFrames : 4 frames Codec ID : V_MPEG4/ISO/AVC Duration : 1 h 36 min Bit rate : 2 800 kb/s Width : 1 920 pixels Height : 1 080 pixels Display aspect ratio : 16:9 Frame rate mode : Constant Frame rate : 23.976 (24000/1001) FPS Color space : YUV Chroma subsampling : 4:2:0 Bit depth : 8 bits Scan type : Progressive Bits/(Pixel*Frame) : 0.056 Stream size : 1.89 GiB (76%) Writing library : x264 core 155 r2901 7d0ff22 Encoding settings : cabac=1 / ref=1 / deblock=1:0:0 / analyse=0x3:0x113 / me=hex / subme=2 / psy=1 / psy_rd=1.00:0.00 / mixed_ref=0 / me_range=16 / chroma_me=1 / trellis=0 / 8x8dct=1 / cqm=0 / deadzone=21,11 / fast_pskip=1 / chroma_qp_offset=0 / threads=34 / lookahead_threads=8 / sliced_threads=0 / nr=0 / decimate=1 / interlaced=0 / bluray_compat=0 / constrained_intra=0 / bframes=3 / b_pyramid=2 / b_adapt=1 / b_bias=0 / direct=1 / weightb=1 / open_gop=0 / weightp=1 / keyint=240 / keyint_min=24 / scenecut=40 / intra_refresh=0 / rc_lookahead=10 / rc=2pass / mbtree=1 / bitrate=2800 / ratetol=1.0 / qcomp=0.60 / qpmin=0 / qpmax=69 / qpstep=4 / cplxblur=20.0 / qblur=0.5 / vbv_maxrate=62500 / vbv_bufsize=78125 / nal_hrd=none / filler=0 / ip_ratio=1.40 / aq=1:1.00 Default : Yes Forced : No Color range : Limited Color primaries : BT.709 Transfer characteristics : BT.709 Matrix coefficients : BT.709 Audio #1 ID : 2 Format : AC-3 Format/Info : Audio Coding 3 Codec ID : A_AC3 Duration : 1 h 36 min Bit rate mode : Constant Bit rate : 448 kb/s Channel(s) : 6 channels Channel positions : Front: L C R, Side: L R, LFE Sampling rate : 48.0 kHz Frame rate : 31.250 FPS (1536 SPF) Bit depth : 16 bits Compression mode : Lossy Stream size : 310 MiB (12%) Title : French AC3 5.1 448kb/s Language : French Service kind : Complete Main Default : Yes Forced : No Audio #2 ID : 3 Format : AC-3 Format/Info : Audio Coding 3 Codec ID : A_AC3 Duration : 1 h 36 min Bit rate mode : Constant Bit rate : 448 kb/s Channel(s) : 6 channels Channel positions : Front: L C R, Side: L R, LFE Sampling rate : 48.0 kHz Frame rate : 31.250 FPS (1536 SPF) Bit depth : 16 bits Compression mode : Lossy Stream size : 310 MiB (12%) Title : English AC3 5.1 448kb/s Language : English Service kind : Complete Main Default : No Forced : No Text #1 ID : 4 Format : UTF-8 Codec ID : S_TEXT/UTF8 Codec ID/Info : UTF-8 Plain Text Duration : 1 h 35 min Bit rate : 2 b/s Count of elements : 48 Stream size : 1.52 KiB (0%) Title : FR Forced Language : French Default : Yes Forced : Yes Text #2 ID : 5 Format : UTF-8 Codec ID : S_TEXT/UTF8 Codec ID/Info : UTF-8 Plain Text Duration : 1 h 35 min Bit rate : 50 b/s Count of elements : 1089 Stream size : 35.5 KiB (0%) Title : FULL FR Language : French Default : No Forced : No Menu 00:00:00.000 : en:00:00:00.000 00:04:47.037 : en:00:04:47.037 00:11:39.073 : en:00:11:39.073 00:17:51.195 : en:00:17:51.195 00:21:43.594 : en:00:21:43.594 00:25:43.792 : en:00:25:43.792 00:29:18.674 : en:00:29:18.674 00:34:06.836 : en:00:34:06.836 00:39:14.018 : en:00:39:14.018 00:45:43.908 : en:00:45:43.908 00:49:57.661 : en:00:49:57.661 00:54:35.230 : en:00:54:35.230 01:00:09.981 : en:01:00:09.981 01:04:59.562 : en:01:04:59.562 01:11:41.631 : en:01:11:41.631 01:16:43.140 : en:01:16:43.140 01:21:27.216 : en:01:21:27.216 01:25:45.640 : en:01:25:45.640 01:31:38.618 : en:01:31:38.618 01:33:37.695 : en:01:33:37.695


Autres versions disponibles