Films

Hellboy

24-09-2019
Hellboy


Origine du film :U.S.A.
Réalisateur(s) :Neil Marshall
Acteur(s) :David Harbour, Milla Jovovich, Ian McShane
Genre :Fantastique,Action,
Année de sortie :2019-05-08
Titre Original :Hellboy
Note spectateur : - 2/5
Qualité/Format/Langue: Blu-Ray 1080p MULTI

Hellboy est de retour et il va devoir affronter en plein cœur de Londres un puissant démon revenu d'entre les morts pour assouvir sa vengeance. NFO Show/hide text General Unique ID : 170603482720118425853437301580587411180 (0x8059091CFFCB6E7C433002A3087526EC) Complete name : G:Hellboy.2019.MULTi.TRUEFRENCH.1080p.BluRay.x264.AC3-PREUMS.Zone-Telechargement.NET.mkv Format : Matroska Format version : Version 4 File size : 9.06 GiB Duration : 2 h 1 min Overall bit rate : 10.7 Mb/s Movie name : Hellboy - PREUMS Encoded date : UTC 2019-09-23 20:01:43 Writing application : mkvmerge v36.0.0 ('Is That Jazz?') 64-bit Writing library : libebml v1.3.9 + libmatroska v1.5.2 Video ID : 1 Format : AVC Format/Info : Advanced Video Codec Format profile : [email protected] Format settings : CABAC / 5 Ref Frames Format settings, CABAC : Yes Format settings, RefFrames : 5 frames Codec ID : V_MPEG4/ISO/AVC Duration : 2 h 1 min Bit rate : 9 702 kb/s Width : 1 920 pixels Height : 800 pixels Display aspect ratio : 2.40:1 Frame rate mode : Constant Frame rate : 23.976 (24000/1001) FPS Color space : YUV Chroma subsampling : 4:2:0 Bit depth : 8 bits Scan type : Progressive Bits/(Pixel*Frame) : 0.263 Stream size : 8.20 GiB (90%) Writing library : x264 core 157 r2970 5493be8 Encoding settings : cabac=1 / ref=5 / deblock=1:-3:-3 / analyse=0x3:0x113 / me=umh / subme=8 / psy=1 / psy_rd=1.00:0.00 / mixed_ref=1 / me_range=16 / chroma_me=1 / trellis=1 / 8x8dct=1 / cqm=0 / deadzone=21,11 / fast_pskip=1 / chroma_qp_offset=-2 / threads=25 / lookahead_threads=4 / sliced_threads=0 / nr=0 / decimate=1 / interlaced=0 / bluray_compat=0 / constrained_intra=0 / bframes=3 / b_pyramid=2 / b_adapt=1 / b_bias=0 / direct=3 / weightb=1 / open_gop=0 / weightp=2 / keyint=250 / keyint_min=23 / scenecut=40 / intra_refresh=0 / rc_lookahead=50 / rc=2pass / mbtree=1 / bitrate=9702 / ratetol=1.0 / qcomp=0.60 / qpmin=0 / qpmax=69 / qpstep=4 / cplxblur=20.0 / qblur=0.5 / ip_ratio=1.40 / aq=1:1.00 Language : English Default : Yes Forced : No Audio #1 ID : 2 Format : AC-3 Format/Info : Audio Coding 3 Commercial name : Dolby Digital Codec ID : A_AC3 Duration : 2 h 0 min Bit rate mode : Constant Bit rate : 384 kb/s Channel(s) : 6 channels Channel layout : L R C LFE Ls Rs Sampling rate : 48.0 kHz Frame rate : 31.250 FPS (1536 SPF) Bit depth : 16 bits Compression mode : Lossy Delay relative to video : 3 s 500 ms Stream size : 332 MiB (4%) Title : VFF TRUEFRENCH 5.1 AC3 Language : French Service kind : Complete Main Default : Yes Forced : No Audio #2 ID : 3 Format : AC-3 Format/Info : Audio Coding 3 Commercial name : Dolby Digital Codec ID : A_AC3 Duration : 2 h 1 min Bit rate mode : Constant Bit rate : 640 kb/s Channel(s) : 6 channels Channel layout : L R C LFE Ls Rs Sampling rate : 48.0 kHz Frame rate : 31.250 FPS (1536 SPF) Bit depth : 16 bits Compression mode : Lossy Stream size : 554 MiB (6%) Title : English 5.1 AC3 Language : English Service kind : Complete Main Default : No Forced : No Text #1 ID : 4 Format : UTF-8 Codec ID : S_TEXT/UTF8 Codec ID/Info : UTF-8 Plain Text Duration : 1 h 45 min Bit rate : 0 b/s Count of elements : 27 Stream size : 595 Bytes (0%) Title : Forced Language : French Default : Yes Forced : No Text #2 ID : 5 Format : UTF-8 Codec ID : S_TEXT/UTF8 Codec ID/Info : UTF-8 Plain Text Duration : 2 h 0 min Bit rate : 48 b/s Count of elements : 1575 Stream size : 42.6 KiB (0%) Title : Full Language : French Default : No Forced : No Menu 00:00:00.000 : en:00:00:00.000 00:05:53.770 : en:00:05:53.770 00:11:26.102 : en:00:11:26.102 00:19:51.023 : en:00:19:51.023 00:24:36.809 : en:00:24:36.809 00:33:56.493 : en:00:33:56.493 00:39:40.211 : en:00:39:40.211 00:47:15.374 : en:00:47:15.374 00:53:27.663 : en:00:53:27.663 01:00:26.164 : en:01:00:26.164 01:08:56.507 : en:01:08:56.507 01:14:49.151 : en:01:14:49.151


Autres versions disponibles