Films

Douleur et gloire

23-09-2019
Douleur et gloire


Origine du film :Espagne
Réalisateur(s) :Pedro Almodóvar
Acteur(s) :Antonio Banderas, Asier Etxeandia, Leonardo Sbaraglia
Genre :Drame,
Année de sortie :2019-05-17
Titre Original :Dolor y gloria
Note spectateur : - 4.0/5
Qualité/Format/Langue: HDLight 1080p MULTI

Une série de retrouvailles après plusieurs décennies, certaines en chair et en os, d'autres par le souvenir, dans la vie d'un réalisateur en souffrance. NFO Show/hide text General Unique ID : 32427152044045413794149550200882808479 (0x18653E083E47A61A17FB5F8C08FD469F) Complete name : Pain.and.Glory.2019.MULTi.1080p.BluRay.Light.x264.AC3-ACOOL.WwW.Zone-Telechargement.Net.mkv Format : Matroska Format version : Version 4 / Version 2 File size : 2.93 GiB Duration : 1 h 53 min Overall bit rate : 3 697 kb/s Movie name : Douleur et gloire Encoded date : UTC 2019-09-22 18:23:06 Writing application : mkvmerge v25.0.0 ('Prog Noir') 64-bit Writing library : libebml v1.3.6 + libmatroska v1.4.9 Video ID : 1 Format : AVC Format/Info : Advanced Video Codec Format profile : [email protected] Format settings : CABAC / 4 Ref Frames Format settings, CABAC : Yes Format settings, ReFrames : 4 frames Codec ID : V_MPEG4/ISO/AVC Duration : 1 h 53 min Bit rate : 2 800 kb/s Width : 1 920 pixels Height : 1 040 pixels Display aspect ratio : 1.85:1 Frame rate mode : Constant Frame rate : 23.976 (24000/1001) FPS Color space : YUV Chroma subsampling : 4:2:0 Bit depth : 8 bits Scan type : Progressive Bits/(Pixel*Frame) : 0.058 Stream size : 2.22 GiB (76%) Writing library : x264 core 155 r2901 7d0ff22 Encoding settings : cabac=1 / ref=1 / deblock=1:0:0 / analyse=0x3:0x113 / me=hex / subme=2 / psy=1 / psy_rd=1.00:0.00 / mixed_ref=0 / me_range=16 / chroma_me=1 / trellis=0 / 8x8dct=1 / cqm=0 / deadzone=21,11 / fast_pskip=1 / chroma_qp_offset=0 / threads=32 / lookahead_threads=8 / sliced_threads=0 / nr=0 / decimate=1 / interlaced=0 / bluray_compat=0 / constrained_intra=0 / bframes=3 / b_pyramid=2 / b_adapt=1 / b_bias=0 / direct=1 / weightb=1 / open_gop=0 / weightp=1 / keyint=240 / keyint_min=24 / scenecut=40 / intra_refresh=0 / rc_lookahead=10 / rc=2pass / mbtree=1 / bitrate=2800 / ratetol=1.0 / qcomp=0.60 / qpmin=0 / qpmax=69 / qpstep=4 / cplxblur=20.0 / qblur=0.5 / vbv_maxrate=62500 / vbv_bufsize=78125 / nal_hrd=none / filler=0 / ip_ratio=1.40 / aq=1:1.00 Default : Yes Forced : No Color range : Limited Color primaries : BT.709 Transfer characteristics : BT.709 Matrix coefficients : BT.709 Audio #1 ID : 2 Format : AC-3 Format/Info : Audio Coding 3 Codec ID : A_AC3 Duration : 1 h 53 min Bit rate mode : Constant Bit rate : 448 kb/s Channel(s) : 6 channels Channel positions : Front: L C R, Side: L R, LFE Sampling rate : 48.0 kHz Frame rate : 31.250 FPS (1536 SPF) Bit depth : 16 bits Compression mode : Lossy Stream size : 364 MiB (12%) Title : French AC3 5.1 448kb/s Language : French Service kind : Complete Main Default : Yes Forced : No Audio #2 ID : 3 Format : AC-3 Format/Info : Audio Coding 3 Codec ID : A_AC3 Duration : 1 h 53 min Bit rate mode : Constant Bit rate : 448 kb/s Channel(s) : 6 channels Channel positions : Front: L C R, Side: L R, LFE Sampling rate : 48.0 kHz Frame rate : 31.250 FPS (1536 SPF) Bit depth : 16 bits Compression mode : Lossy Stream size : 364 MiB (12%) Title : Spanish AC3 5.1 448kb/s Language : Spanish Service kind : Complete Main Default : No Forced : No Text #1 ID : 4 Format : UTF-8 Codec ID : S_TEXT/UTF8 Codec ID/Info : UTF-8 Plain Text Duration : 1 h 45 min Bit rate : 0 b/s Count of elements : 9 Stream size : 174 Bytes (0%) Title : FR Forced Language : French Default : Yes Forced : Yes Text #2 ID : 5 Format : UTF-8 Codec ID : S_TEXT/UTF8 Codec ID/Info : UTF-8 Plain Text Duration : 1 h 52 min Bit rate : 54 b/s Count of elements : 1467 Stream size : 44.6 KiB (0%) Title : FULL FR Language : French Default : No Forced : No Menu 00:00:00.000 : en:00:00:00.000 00:04:56.129 : en:00:04:56.129 00:10:11.653 : en:00:10:11.653 00:17:27.255 : en:00:17:27.255 00:23:32.786 : en:00:23:32.786 00:26:29.087 : en:00:26:29.087 00:33:29.549 : en:00:33:29.549 00:42:08.735 : en:00:42:08.735 00:50:04.168 : en:00:50:04.168 00:58:39.850 : en:00:58:39.850 01:05:17.914 : en:01:05:17.914 01:10:34.772 : en:01:10:34.772 01:19:38.524 : en:01:19:38.524 01:27:58.523 : en:01:27:58.523 01:35:12.498 : en:01:35:12.498 01:43:03.636 : en:01:43:03.636 01:49:30.189 : en:01:49:30.189


Autres versions disponibles