Films

Spider-Man: Far From Home

19-09-2019
Spider-Man: Far From Home


Origine du film :U.S.A.
Réalisateur(s) :Jon Watts
Acteur(s) :Tom Holland, Jake Gyllenhaal, Zendaya
Genre :Action,Aventure,
Année de sortie :2019-07-03
Titre Original :Spider-Man: Far From Home
Note spectateur : - 4.0/5
Qualité/Format/Langue: BRRIP VOSTFR

L'araignée sympa du quartier décide de rejoindre ses meilleurs amis Ned, MJ, et le reste de la bande pour des vacances en Europe. Cependant, le projet de Peter de laisser son costume de super-héros derrière lui pendant quelques semaines est rapidement compromis quand il accepte à contrecoeur d'aider Nick Fury à découvrir le mystère de plusieurs attaques de créatures, qui ravagent le continent ! NFO x264: Show/hide text General Unique ID : 242780938687913404350777166149158693432 (0xB6A5E871052343CC86678D353447EA38) Complete name : Spider-Man.Far.from.Home.2019.VOSTFR.BRRip.x264-ACOOL.WwW.Zone-Telechargement.Net.mkv Format : Matroska Format version : Version 4 / Version 2 File size : 1.12 GiB Duration : 2 h 9 min Overall bit rate : 1 238 kb/s Movie name : Spider-Man: Far From Home Encoded date : UTC 2019-09-19 10:09:40 Writing application : mkvmerge v25.0.0 ('Prog Noir') 64-bit Writing library : libebml v1.3.6 + libmatroska v1.4.9 Video ID : 1 Format : AVC Format/Info : Advanced Video Codec Format profile : [email protected] Format settings : CABAC / 5 Ref Frames Format settings, CABAC : Yes Format settings, ReFrames : 5 frames Codec ID : V_MPEG4/ISO/AVC Duration : 2 h 9 min Bit rate : 1 101 kb/s Width : 720 pixels Height : 300 pixels Display aspect ratio : 2.40:1 Frame rate mode : Constant Frame rate : 23.976 (24000/1001) FPS Color space : YUV Chroma subsampling : 4:2:0 Bit depth : 8 bits Scan type : Progressive Bits/(Pixel*Frame) : 0.213 Stream size : 1 019 MiB (89%) Writing library : x264 core 158 r2984 3759fcb Encoding settings : cabac=1 / ref=5 / deblock=1:-3:-3 / analyse=0x3:0x113 / me=hex / subme=8 / psy=1 / psy_rd=1.00:0.15 / mixed_ref=1 / me_range=16 / chroma_me=1 / trellis=2 / 8x8dct=1 / cqm=0 / deadzone=21,11 / fast_pskip=1 / chroma_qp_offset=-3 / threads=9 / lookahead_threads=1 / sliced_threads=0 / nr=0 / decimate=1 / interlaced=0 / bluray_compat=0 / constrained_intra=0 / bframes=3 / b_pyramid=2 / b_adapt=1 / b_bias=0 / direct=3 / weightb=1 / open_gop=0 / weightp=2 / keyint=250 / keyint_min=23 / scenecut=40 / intra_refresh=0 / rc_lookahead=50 / rc=crf / mbtree=1 / crf=19.0 / qcomp=0.60 / qpmin=0 / qpmax=69 / qpstep=4 / vbv_maxrate=17500 / vbv_bufsize=17500 / crf_max=0.0 / nal_hrd=none / filler=0 / ip_ratio=1.40 / aq=1:0.60 Default : Yes Forced : No Color range : Limited Matrix coefficients : BT.709 Audio ID : 2 Format : AAC Format/Info : Advanced Audio Codec Format profile : LC Codec ID : A_AAC-2 Duration : 2 h 9 min Bit rate : 135 kb/s Channel(s) : 2 channels Channel positions : Front: L R Sampling rate : 48.0 kHz Frame rate : 46.875 FPS (1024 SPF) Compression mode : Lossy Delay relative to video : 20 ms Stream size : 125 MiB (11%) Title : English AAC 2.0 Language : English Default : Yes Forced : No Text #1 ID : 3 Format : UTF-8 Codec ID : S_TEXT/UTF8 Codec ID/Info : UTF-8 Plain Text Duration : 2 h 8 min Bit rate : 54 b/s Count of elements : 1674 Stream size : 51.6 KiB (0%) Title : FULL FR SRT Language : French Default : Yes Forced : Yes Text #2 ID : 4 Format : ASS Codec ID : S_TEXT/ASS Codec ID/Info : Advanced Sub Station Alpha Duration : 2 h 8 min Bit rate : 93 b/s Count of elements : 1674 Compression mode : Lossless Stream size : 88.5 KiB (0%) Title : FULL FR ASS Language : French Default : No Forced : No Menu 00:00:00.000 : en:00:00:00.000 00:09:35.033 : en:00:09:35.033 00:16:06.716 : en:00:16:06.716 00:25:18.475 : en:00:25:18.475 00:35:26.499 : en:00:35:26.499 00:41:57.014 : en:00:41:57.014 00:49:50.029 : en:00:49:50.029 00:57:09.509 : en:00:57:09.509 01:04:50.637 : en:01:04:50.637 01:15:57.219 : en:01:15:57.219 01:22:49.089 : en:01:22:49.089 01:29:25.193 : en:01:29:25.193 01:36:43.256 : en:01:36:43.256 01:44:47.364 : en:01:44:47.364 01:52:17.397 : en:01:52:17.397 01:57:45.433 : en:01:57:45.433


Autres versions disponibles