Films

Spider-Man: Far From Home

17-09-2019
Spider-Man: Far From Home


Origine du film :U.S.A.
Réalisateur(s) :Jon Watts
Acteur(s) :Tom Holland, Jake Gyllenhaal, Zendaya
Genre :Action,Aventure,
Année de sortie :2019-07-03
Titre Original :Spider-Man: Far From Home
Qualité/Format/Langue: Web-DL VOSTFR

L'araignée sympa du quartier décide de rejoindre ses meilleurs amis Ned, MJ, et le reste de la bande pour des vacances en Europe. Cependant, le projet de Peter de laisser son costume de super-héros derrière lui pendant quelques semaines est rapidement compromis quand il accepte à contrecoeur d'aider Nick Fury à découvrir le mystère de plusieurs attaques de créatures, qui ravagent le continent ! NFO x264: Show/hide text General Unique ID : 76208292303844828256686979831312725390 (0x39552EE73C0A8CB86D0D5BBE22C0B58E) Complete name : Spider.Man.Far.From.Home.2019.FANSUB.VOSTFR.WEB-DL.x264-ACOOL.WwW.Zone-Telechargement.Net.mkv Format : Matroska Format version : Version 4 / Version 2 File size : 1.23 GiB Duration : 2 h 9 min Overall bit rate : 1 358 kb/s Movie name : Spider-Man: Far From Home Encoded date : UTC 2019-09-17 13:30:47 Writing application : mkvmerge v25.0.0 ('Prog Noir') 64-bit Writing library : libebml v1.3.6 + libmatroska v1.4.9 Video ID : 1 Format : AVC Format/Info : Advanced Video Codec Format profile : [email protected] Format settings : CABAC / 5 Ref Frames Format settings, CABAC : Yes Format settings, ReFrames : 5 frames Codec ID : V_MPEG4/ISO/AVC Duration : 2 h 9 min Bit rate : 1 100 kb/s Width : 720 pixels Height : 298 pixels Display aspect ratio : 2.40:1 Original display aspect rat : 2.40:1 Frame rate mode : Constant Frame rate : 23.976 (24000/1001) FPS Color space : YUV Chroma subsampling : 4:2:0 Bit depth : 8 bits Scan type : Progressive Bits/(Pixel*Frame) : 0.214 Stream size : 1 018 MiB (81%) Writing library : x264 core 152 r2851M ba24899 Encoding settings : cabac=1 / ref=5 / deblock=1:-1:-1 / analyse=0x3:0x113 / me=umh / subme=9 / psy=1 / psy_rd=1.00:0.15 / mixed_ref=1 / me_range=16 / chroma_me=1 / trellis=2 / 8x8dct=1 / cqm=0 / deadzone=21,11 / fast_pskip=1 / chroma_qp_offset=-3 / threads=24 / lookahead_threads=2 / sliced_threads=0 / nr=0 / decimate=1 / interlaced=0 / bluray_compat=0 / constrained_intra=0 / bframes=3 / b_pyramid=2 / b_adapt=2 / b_bias=0 / direct=3 / weightb=1 / open_gop=0 / weightp=2 / keyint=250 / keyint_min=23 / scenecut=40 / intra_refresh=0 / rc_lookahead=50 / rc=2pass / mbtree=1 / bitrate=1100 / ratetol=1.0 / qcomp=0.60 / qpmin=0 / qpmax=69 / qpstep=4 / cplxblur=20.0 / qblur=0.5 / ip_ratio=1.40 / aq=1:1.00 Language : English Default : Yes Forced : No Audio ID : 2 Format : AAC Format/Info : Advanced Audio Codec Format profile : LC Codec ID : A_AAC-2 Duration : 2 h 9 min Bit rate : 256 kb/s Channel(s) : 2 channels Channel positions : Front: L R Sampling rate : 48.0 kHz Frame rate : 46.875 FPS (1024 SPF) Compression mode : Lossy Delay relative to video : -43 ms Stream size : 237 MiB (19%) Title : English AAC 2.0 Language : English Default : Yes Forced : No Text #1 ID : 3 Format : UTF-8 Codec ID : S_TEXT/UTF8 Codec ID/Info : UTF-8 Plain Text Duration : 2 h 8 min Bit rate : 56 b/s Count of elements : 1620 Stream size : 53.3 KiB (0%) Title : FULL FR SRT FANSUB Language : French Default : Yes Forced : Yes Text #2 ID : 4 Format : ASS Codec ID : S_TEXT/ASS Codec ID/Info : Advanced Sub Station Alpha Duration : 2 h 8 min Bit rate : 94 b/s Count of elements : 1620 Compression mode : Lossless Stream size : 88.8 KiB (0%) Title : FULL FR ASS FANSUB Language : French Default : No Forced : No


Autres versions disponibles