Films

Spider-Man: Far From Home

17-09-2019
Spider-Man: Far From Home


Origine du film :U.S.A.
Réalisateur(s) :Jon Watts
Acteur(s) :Tom Holland, Jake Gyllenhaal, Zendaya
Genre :Action,Aventure,
Année de sortie :2019-07-03
Titre Original :Spider-Man: Far From Home
Note spectateur : - 4/5
Qualité/Format/Langue: HDLight 1080p MULTI

L'araignée sympa du quartier décide de rejoindre ses meilleurs amis Ned, MJ, et le reste de la bande pour des vacances en Europe. Cependant, le projet de Peter de laisser son costume de super-héros derrière lui pendant quelques semaines est rapidement compromis quand il accepte à contrecoeur d'aider Nick Fury à découvrir le mystère de plusieurs attaques de créatures, qui ravagent le continent ! VERSION VFQ FRENCH NFO Show/hide text General Unique ID : 257612332985529932784493912062072265487 (0xC1CE54A31EF92FBCC5A6A51BCBD91B0F) Complete name : G:Spider-Man.Far.From.Home.2019.MULTI.1080p.HDRip.Light.x264.WwW.Zone-Telechargement.NET.mkv Format : Matroska Format version : Version 4 File size : 1.72 GiB Duration : 2 h 9 min Overall bit rate : 1 900 kb/s Movie name : GalaxyRG - Spider-Man.Far.From.Home.2019.1080p.WEBRip.1600MB.DD5.1.x264-GalaxyRG Encoded date : UTC 2019-09-17 10:53:20 Writing application : mkvmerge v36.0.0 ('Is That Jazz?') 64-bit Writing library : libebml v1.3.9 + libmatroska v1.5.2 Video ID : 1 Format : AVC Format/Info : Advanced Video Codec Format profile : [email protected] Format settings : CABAC / 4 Ref Frames Format settings, CABAC : Yes Format settings, RefFrames : 4 frames Codec ID : V_MPEG4/ISO/AVC Duration : 2 h 9 min Bit rate : 1 452 kb/s Width : 1 920 pixels Height : 796 pixels Display aspect ratio : 2.40:1 Frame rate mode : Variable Frame rate : 23.976 FPS Color space : YUV Chroma subsampling : 4:2:0 Bit depth : 8 bits Scan type : Progressive Bits/(Pixel*Frame) : 0.040 Stream size : 1.31 GiB (76%) Writing library : x264 core 148 r2748 97eaef2 Encoding settings : cabac=1 / ref=2 / deblock=1:0:0 / analyse=0x3:0x113 / me=hex / subme=4 / psy=1 / psy_rd=1.00:0.00 / mixed_ref=0 / me_range=16 / chroma_me=1 / trellis=1 / 8x8dct=1 / cqm=0 / deadzone=21,11 / fast_pskip=1 / chroma_qp_offset=0 / threads=6 / lookahead_threads=1 / sliced_threads=0 / nr=0 / decimate=1 / interlaced=0 / bluray_compat=0 / constrained_intra=0 / bframes=3 / b_pyramid=2 / b_adapt=1 / b_bias=0 / direct=1 / weightb=1 / open_gop=0 / weightp=1 / keyint=250 / keyint_min=23 / scenecut=40 / intra_refresh=0 / rc_lookahead=20 / rc=2pass / mbtree=1 / bitrate=1452 / ratetol=1.0 / qcomp=0.60 / qpmin=0 / qpmax=69 / qpstep=4 / cplxblur=20.0 / qblur=0.5 / ip_ratio=1.40 / aq=1:1.00 Language : English Default : Yes Forced : No Audio #1 ID : 2 Format : AAC LC Format/Info : Advanced Audio Codec Low Complexity Codec ID : A_AAC-2 Duration : 2 h 9 min Bit rate : 126 kb/s Channel(s) : 2 channels Channel layout : L R Sampling rate : 48.0 kHz Frame rate : 46.875 FPS (1024 SPF) Compression mode : Lossy Stream size : 117 MiB (7%) Title : VFQ FRENCH 2.0 Language : French Default : Yes Forced : No Audio #2 ID : 3 Format : AC-3 Format/Info : Audio Coding 3 Commercial name : Dolby Digital Codec ID : A_AC3 Duration : 2 h 9 min Bit rate mode : Constant Bit rate : 320 kb/s Channel(s) : 6 channels Channel layout : L R C LFE Ls Rs Sampling rate : 48.0 kHz Frame rate : 31.250 FPS (1536 SPF) Bit depth : 16 bits Compression mode : Lossy Stream size : 296 MiB (17%) Title : VO 5.1 Language : English Service kind : Complete Main Default : No Forced : No Text #1 ID : 4 Format : UTF-8 Codec ID : S_TEXT/UTF8 Codec ID/Info : UTF-8 Plain Text Duration : 2 h 8 min Bit rate : 0 b/s Count of elements : 10 Stream size : 295 Bytes (0%) Title : Forced Language : French Default : Yes Forced : No Text #2 ID : 5 Format : UTF-8 Codec ID : S_TEXT/UTF8 Codec ID/Info : UTF-8 Plain Text Duration : 2 h 8 min Bit rate : 56 b/s Count of elements : 1620 Stream size : 53.3 KiB (0%) Title : French Fansub Language : French Default : No Forced : No


Autres versions disponibles