Films

Spider-Man: Far From Home

14-09-2019
Spider-Man: Far From Home


Origine du film :U.S.A.
Réalisateur(s) :Jon Watts
Acteur(s) :Tom Holland, Jake Gyllenhaal, Zendaya
Genre :Action,Aventure,
Année de sortie :2019-07-03
Titre Original :Spider-Man: Far From Home
Qualité/Format/Langue: Webrip VOSTFR

L'araignée sympa du quartier décide de rejoindre ses meilleurs amis Ned, MJ, et le reste de la bande pour des vacances en Europe. Cependant, le projet de Peter de laisser son costume de super-héros derrière lui pendant quelques semaines est rapidement compromis quand il accepte à contrecoeur d'aider Nick Fury à découvrir le mystère de plusieurs attaques de créatures, qui ravagent le continent ! NFO: Show/hide text General Unique ID : 204079384791294088631857997802900888819 (0x998842839313AF258E2C969890751CF3) Complete name : Spider.Man.Far.From.Home.2019.FANSUB.VOSTFR.1080p.WEBRiP.x264-Slay3R.WwW.Zone-Telechargement.Net.mkv Format : Matroska Format version : Version 4 / Version 2 File size : 4.62 GiB Duration : 2 h 8 min Overall bit rate : 5 139 kb/s Encoded date : UTC 2019-09-13 23:03:38 Writing application : mkvmerge v36.0.0 ('Is That Jazz?') 32-bit Writing library : libebml v1.3.9 + libmatroska v1.5.2 Video ID : 1 Format : AVC Format/Info : Advanced Video Codec Format profile : [email protected] Format settings : CABAC / 4 Ref Frames Format settings, CABAC : Yes Format settings, ReFrames : 4 frames Codec ID : V_MPEG4/ISO/AVC Duration : 2 h 8 min Bit rate : 4 500 kb/s Width : 1 920 pixels Height : 804 pixels Display aspect ratio : 2.40:1 Frame rate mode : Constant Frame rate : 30.000 FPS Color space : YUV Chroma subsampling : 4:2:0 Bit depth : 8 bits Scan type : Progressive Bits/(Pixel*Frame) : 0.097 Stream size : 4.04 GiB (87%) Writing library : x264 core 148 r2748 97eaef2 Encoding settings : cabac=1 / ref=4 / deblock=1:0:0 / analyse=0x3:0x113 / me=umh / subme=9 / psy=1 / psy_rd=1.00:0.00 / mixed_ref=1 / me_range=16 / chroma_me=1 / trellis=2 / 8x8dct=1 / cqm=0 / deadzone=21,11 / fast_pskip=1 / chroma_qp_offset=-2 / threads=72 / lookahead_threads=6 / sliced_threads=0 / nr=0 / decimate=1 / interlaced=0 / bluray_compat=0 / constrained_intra=0 / bframes=3 / b_pyramid=2 / b_adapt=2 / b_bias=0 / direct=3 / weightb=1 / open_gop=0 / weightp=2 / keyint=250 / keyint_min=25 / scenecut=40 / intra_refresh=0 / rc_lookahead=50 / rc=abr / mbtree=1 / bitrate=4500 / ratetol=1.0 / qcomp=0.60 / qpmin=0 / qpmax=69 / qpstep=4 / ip_ratio=1.40 / aq=1:1.00 Default : Yes Forced : No Audio #1 ID : 2 Format : AC-3 Format/Info : Audio Coding 3 Codec ID : A_AC3 Duration : 2 h 8 min Bit rate mode : Constant Bit rate : 384 kb/s Channel(s) : 2 channels Channel positions : Front: L R Sampling rate : 48.0 kHz Frame rate : 31.250 FPS (1536 SPF) Bit depth : 16 bits Compression mode : Lossy Delay relative to video : 22 ms Stream size : 353 MiB (7%) Title : AC3 English Service kind : Complete Main Default : Yes Forced : No Audio #2 ID : 3 Format : AAC Format/Info : Advanced Audio Codec Format profile : LC Codec ID : A_AAC-2 Duration : 2 h 8 min Bit rate : 256 kb/s Channel(s) : 2 channels Channel positions : Front: L R Sampling rate : 48.0 kHz Frame rate : 46.875 FPS (1024 SPF) Compression mode : Lossy Delay relative to video : -43 ms Stream size : 236 MiB (5%) Title : AAC English Default : No Forced : No Text ID : 4 Format : UTF-8 Codec ID : S_TEXT/UTF8 Codec ID/Info : UTF-8 Plain Text Duration : 1 h 55 min Bit rate : 62 b/s Count of elements : 1612 Stream size : 53.2 KiB (0%) Title : FANSUB French Default : Yes Forced : No


Autres versions disponibles