Films

The Boat

04-09-2019
The Boat


Origine du film :Grande-Bretagne
Réalisateur(s) :Winston Azzopardi
Acteur(s) :Joe Azzopardi
Genre :Thriller,
Titre Original :The Boat
Note spectateur : - 2.9/5
Qualité/Format/Langue: WEB-DL 1080p FRENCH

Un marin solitaire est enfermé dans la tête d'un voilier sous le controle du pilote automatique. NFO Show/hide text General Unique ID : 339762208932184208940328325820473586095 (0xFF9BD23B2B8DE7A518EE93D7F91AB1AF) Complete name : The.Boat.2018.FRENCH.1080p.WEB-DL.DD5.1.H264-ACOOL.WwW.Zone-Telechargement.Net.mkv Format : Matroska Format version : Version 4 / Version 2 File size : 3.07 GiB Duration : 1 h 29 min Overall bit rate : 4 942 kb/s Encoded date : UTC 2019-09-03 18:37:53 Writing application : mkvmerge v25.0.0 ('Prog Noir') 64-bit Writing library : libebml v1.3.6 + libmatroska v1.4.9 Video ID : 1 Format : AVC Format/Info : Advanced Video Codec Format profile : [email protected] Format settings : CABAC / 5 Ref Frames Format settings, CABAC : Yes Format settings, ReFrames : 5 frames Codec ID : V_MPEG4/ISO/AVC Duration : 1 h 29 min Bit rate : 4 556 kb/s Width : 1 920 pixels Height : 792 pixels Display aspect ratio : 2.40:1 Frame rate mode : Constant Frame rate : 23.976 FPS Color space : YUV Chroma subsampling : 4:2:0 Bit depth : 8 bits Scan type : Progressive Bits/(Pixel*Frame) : 0.125 Stream size : 2.83 GiB (92%) Language : English Default : Yes Forced : No Color range : Limited Color primaries : BT.709 Transfer characteristics : BT.709 Matrix coefficients : BT.709 Audio ID : 2 Format : AC-3 Format/Info : Audio Coding 3 Codec ID : A_AC3 Duration : 1 h 29 min Bit rate mode : Constant Bit rate : 384 kb/s Channel(s) : 6 channels Channel positions : Front: L C R, Side: L R, LFE Sampling rate : 48.0 kHz Frame rate : 31.250 FPS (1536 SPF) Bit depth : 16 bits Compression mode : Lossy Delay relative to video : -42 ms Stream size : 244 MiB (8%) Title : French AC3 5.1 Language : French Service kind : Complete Main Default : Yes Forced : No Text ID : 3 Format : UTF-8 Codec ID : S_TEXT/UTF8 Codec ID/Info : UTF-8 Plain Text Duration : 1 h 25 min Bit rate : 0 b/s Count of elements : 2 Stream size : 18.0 Bytes (0%) Title : Forced Language : French Default : Yes Forced : Yes Menu 00:00:00.000 : en:1 00:05:32.000 : en:2 00:11:24.000 : en:3 00:17:00.000 : en:4 00:23:08.000 : en:5 00:28:51.000 : en:6 00:34:08.000 : en:7 00:39:50.000 : en:8 00:46:30.000 : en:9 00:51:46.000 : en:10 00:56:52.000 : en:11 01:02:25.000 : en:12 01:07:59.000 : en:13 01:13:32.000 : en:14 01:19:20.000 : en:15 01:25:24.000 : en:16


Autres versions disponibles