Films

Comme des bêtes 2

18-08-2019
Comme des bêtes 2


Origine du film :U.S.A.
Réalisateur(s) :Chris Renaud, Jonathan Del Val
Acteur(s) :Philippe Lacheau, Willy Rovelli, Harrison Ford
Genre :Animation,Comédie,Famille,
Année de sortie :2019-07-31
Titre Original :The Secret Life of Pets 2
Note spectateur : - 3.8/5
Qualité/Format/Langue: HDLight 1080p MULTI

Le Fox-Terrier Max doit faire face à un grand bouleversement : sa propriétaire Katie s'est mariée et a eu un adorable bébé, Liam. Max est tellement obsédé par la garde du petit, qu'il en développe des troubles obsessionnels du comportement. Lors d'une excursion en famille dans une ferme, Max et le gros Duke vont faire la connaissance de vaches souffrant d'intolérances aux canidés, de renards hostiles et d'une dinde monstrueuse, ce qui ne va pas arranger les tocs de Max... NFO Show/hide text General Unique ID : 134917951665794752289637032449288257994 (0x65804097B4CFE23EFA88CD52E21D41CA) Complete name : The.Secret.Life.of.Pets.2.2019.MULTi.1080p.Bluray.Light.x264.AC3-ACOOL.WwW.Zone-Telechargement.Net.mkv Format : Matroska Format version : Version 4 / Version 2 File size : 2.18 GiB Duration : 1 h 26 min Overall bit rate : 3 632 kb/s Movie name : Comme des bêtes 2 Encoded date : UTC 2019-08-18 12:30:06 Writing application : mkvmerge v25.0.0 ('Prog Noir') 64-bit Writing library : libebml v1.3.6 + libmatroska v1.4.9 Video ID : 1 Format : AVC Format/Info : Advanced Video Codec Format profile : [email protected] Format settings : CABAC / 4 Ref Frames Format settings, CABAC : Yes Format settings, ReFrames : 4 frames Codec ID : V_MPEG4/ISO/AVC Duration : 1 h 26 min Bit rate : 2 800 kb/s Width : 1 920 pixels Height : 1 040 pixels Display aspect ratio : 1.85:1 Frame rate mode : Constant Frame rate : 23.976 (24000/1001) FPS Color space : YUV Chroma subsampling : 4:2:0 Bit depth : 8 bits Scan type : Progressive Bits/(Pixel*Frame) : 0.058 Stream size : 1.68 GiB (77%) Writing library : x264 core 155 r2901 7d0ff22 Encoding settings : cabac=1 / ref=1 / deblock=1:0:0 / analyse=0x3:0x113 / me=hex / subme=2 / psy=1 / psy_rd=1.00:0.00 / mixed_ref=0 / me_range=16 / chroma_me=1 / trellis=0 / 8x8dct=1 / cqm=0 / deadzone=21,11 / fast_pskip=1 / chroma_qp_offset=0 / threads=32 / lookahead_threads=8 / sliced_threads=0 / nr=0 / decimate=1 / interlaced=0 / bluray_compat=0 / constrained_intra=0 / bframes=3 / b_pyramid=2 / b_adapt=1 / b_bias=0 / direct=1 / weightb=1 / open_gop=0 / weightp=1 / keyint=240 / keyint_min=24 / scenecut=40 / intra_refresh=0 / rc_lookahead=10 / rc=2pass / mbtree=1 / bitrate=2800 / ratetol=1.0 / qcomp=0.60 / qpmin=0 / qpmax=69 / qpstep=4 / cplxblur=20.0 / qblur=0.5 / vbv_maxrate=62500 / vbv_bufsize=78125 / nal_hrd=none / filler=0 / ip_ratio=1.40 / aq=1:1.00 Default : Yes Forced : No Color range : Limited Color primaries : BT.709 Transfer characteristics : BT.709 Matrix coefficients : BT.709 Audio #1 ID : 2 Format : AC-3 Format/Info : Audio Coding 3 Codec ID : A_AC3 Duration : 1 h 26 min Bit rate mode : Constant Bit rate : 384 kb/s Channel(s) : 6 channels Channel positions : Front: L C R, Side: L R, LFE Sampling rate : 48.0 kHz Frame rate : 31.250 FPS (1536 SPF) Bit depth : 16 bits Compression mode : Lossy Delay relative to video : -83 ms Stream size : 236 MiB (11%) Title : French AC3 5.1 384kb/s Language : French Service kind : Complete Main Default : Yes Forced : No Audio #2 ID : 3 Format : AC-3 Format/Info : Audio Coding 3 Codec ID : A_AC3 Duration : 1 h 26 min Bit rate mode : Constant Bit rate : 448 kb/s Channel(s) : 6 channels Channel positions : Front: L C R, Side: L R, LFE Sampling rate : 48.0 kHz Frame rate : 31.250 FPS (1536 SPF) Bit depth : 16 bits Compression mode : Lossy Delay relative to video : -5 ms Stream size : 276 MiB (12%) Title : English AC3 5.1 448kb/s Language : English Service kind : Complete Main Default : No Forced : No Text #1 ID : 4 Format : UTF-8 Codec ID : S_TEXT/UTF8 Codec ID/Info : UTF-8 Plain Text Duration : 1 h 13 min Bit rate : 1 b/s Count of elements : 28 Stream size : 707 Bytes (0%) Title : FR Forced Language : French Default : Yes Forced : Yes Text #2 ID : 5 Format : UTF-8 Codec ID : S_TEXT/UTF8 Codec ID/Info : UTF-8 Plain Text Duration : 1 h 25 min Bit rate : 44 b/s Count of elements : 1001 Stream size : 28.1 KiB (0%) Title : FULL FR Language : French Default : No Forced : No


Autres versions disponibles